<?xml version="1.0" standalone="no"?>
<!DOCTYPE svg PUBLIC "-//W3C//DTD SVG 1.1//EN" "http://www.w3.org/Graphics/SVG/1.1/DTD/svg11.dtd" >
<svg xmlns="http://www.w3.org/2000/svg">
<metadata>Generated by IcoMoon</metadata>
<defs>
<font id="icomoon" horiz-adv-x="1024">
<font-face units-per-em="1024" ascent="960" descent="-64" />
<missing-glyph horiz-adv-x="1024" />
<glyph unicode="&#x20;" horiz-adv-x="512" d="" />
<glyph unicode="&#xe900;" glyph-name="ace" d="M895.146 693.647l-144.976 63.9v-471.381l106.723 227.357h0.474l58.557 126.413c9.040 20.467-0.17 44.272-20.778 53.711zM652.886 896h-534.108c-30.223-0.501-54.528-24.538-54.779-54.177v-787.183c0.246-29.718 24.481-53.891 54.781-54.637h533.635c31.037-0.256 56.41 24.202 56.669 54.637v787.183c-0.518 30.071-25.526 54.181-56.198 54.177zM194.339 730.229v-4.167h-6.612v-20.837h-27.389v20.837h-8.972v4.167c-20.999 2.251-37.216 19.133-38.252 39.823 0.202 8.775 3.356 17.24 8.972 24.078h2.834l27.863 34.266c5.901 5.808 13.488 9.689 21.723 11.113 7.663 0.332 15.028-2.937 19.834-8.797l31.168-35.655c1.441-1.096 2.579-2.529 3.305-4.167 3.084-6.553 4.848-13.629 5.195-20.837-0.476-21.443-17.82-38.855-39.668-39.823zM440.378 355.622l-0.474 0.464c-11.242 0.573-22.355 2.595-33.056 6.019v-46.307h23.613v-41.21h-87.366v41.21h20.307v46.307c-10.64-3.59-21.805-5.466-33.056-5.558-50.173-1.824-92.402 36.477-94.45 85.664 1.375 17.155 7.77 33.555 18.418 47.232l3.779 3.242 100.587 118.077c14.579 15.344 39.082 16.195 54.73 1.901 0.669-0.611 1.318-1.245 1.939-1.901l100.118-116.227c12.528-14.41 19.837-32.483 20.778-51.398-2.787-49.686-45.123-88.333-95.866-87.514zM619.83 84.278v-4.63h-6.614v-20.838h-27.389v20.838h-8.973v5.094c-21.216 1.434-37.811 18.509-38.25 39.357 0.029 8.528 3.219 16.758 8.97 23.155l27.866 33.338c5.408 5.046 12.397 8.147 19.834 8.797 7.709 0.576 15.184-2.739 19.834-8.797l31.638-34.726c4.41-6.97 6.858-14.96 7.085-23.155-0.422-19.168-14.71-35.318-34-38.432zM954.65 386.646l-71.782 80.57-132.701-280.608v-10.186l201.648 174.106c9.731 9.782 10.925 24.992 2.835 36.118z" />
<glyph unicode="&#xe901;" glyph-name="arrow-left" d="M671.997 96c8.186 0 16.378 3.13 22.624 9.376 12.506 12.506 12.506 32.752 0 45.248l-297.376 297.376 297.376 297.377c12.506 12.504 12.506 32.752 0 45.248-12.502 12.496-32.752 12.504-45.248 0l-320-320.001c-12.503-12.502-12.503-32.752 0-45.248l320-320c6.25-6.246 14.442-9.376 22.624-9.376z" />
<glyph unicode="&#xe902;" glyph-name="arrow-right" d="M352.003 96c-8.186 0-16.378 3.13-22.624 9.376-12.505 12.506-12.505 32.752 0 45.248l297.376 297.376-297.376 297.377c-12.505 12.504-12.505 32.752 0 45.248 12.502 12.496 32.752 12.504 45.248 0l320-320.001c12.502-12.502 12.502-32.752 0-45.248l-320-320c-6.25-6.246-14.442-9.376-22.624-9.376z" />
<glyph unicode="&#xe903;" glyph-name="award" d="M731.376 543.875v320.125h-438.751v-320.125c0-93.731 59.247-176.246 146.249-206.896v-158.73h-67.37c-43.488 0-78.879-35.392-78.879-78.877v-67.373h438.751v67.373c0 43.485-35.392 78.877-78.88 78.877h-67.37v158.73c87.002 30.65 146.25 113.181 146.25 206.896zM512 546.278l-92.755-47.61 17.728 100.944-75.757 72.101 104.634 14.836 46.15 91.292 46.15-91.292 104.634-14.836-75.757-72.101 17.728-100.944-92.755 47.61zM526.122 641.862l-14.122 27.917-14.122-27.917-30.096-4.275 21.744-20.685-5.299-30.080 27.773 14.253 27.773-14.253-5.299 30.080 21.744 20.685-30.096 4.275zM928 812v-170.625c0-46.389-18.458-89.337-50.374-121.077v291.702h50.374zM146.375 812v-291.702c-31.858 31.683-50.375 74.608-50.375 121.077v170.625h50.375zM828.874 812v-570.717l-73.302 73.306-72.947-71.437v93.843c60.467 49.971 97.501 125.338 97.501 206.88v268.125h48.749zM341.376 336.995v-95.712l-73.305 73.306-72.946-71.437v568.848h48.75v-268.125c0-81.542 37.034-156.909 97.501-206.88z" />
<glyph unicode="&#xe904;" glyph-name="banca" d="M943.888 634.166c-1.85 8.47-5.926 16.292-11.814 22.656-5.885 6.364-13.366 11.041-21.667 13.545-68.17 57.032-236.685 133.093-385.19 117.614-64.819-4.822-128.157-21.76-186.73-49.933-41.437-13.421-105.326-70.48-131.351-124.631-2.157-4.893-16.573-33.414-16.573-33.414s4.585 2.192 9.873 4.666c1.696 0.778 3.528 1.206 5.392 1.27s3.721-0.243 5.465-0.902c1.744-0.662 3.34-1.661 4.695-2.941s2.443-2.819 3.2-4.522c0.757-1.706 1.169-3.542 1.212-5.405 0.043-1.866-0.285-3.718-0.964-5.456s-1.695-3.322-2.991-4.662c-1.296-1.341-2.844-2.413-4.556-3.152-89.256-40.138-139.872-127.939-132.531-235.088 0.040-0.733 0.303-1.437 0.754-2.013 0.451-0.579 1.068-1.008 1.769-1.226s1.451-0.214 2.151 0.003c0.7 0.221 1.316 0.653 1.764 1.232 25.461 32.029 54.079 61.414 85.422 87.712 1.222-10.922 3.279-21.731 6.153-32.339 8.917-36.842 28.33-70.31 55.886-96.342s62.072-43.51 99.363-50.32c-19.186-29.875-29.73-92.39 25.901-116.902 47.581-23.482 86.256-63.658 88.858-111.894 0.022-0.474 0.227-0.918 0.576-1.238 0.349-0.323 0.81-0.493 1.283-0.48 28.099 38.621-12.563 180-13.306 185.299 0 0.147-0.038 0.291-0.115 0.419-0.074 0.125-0.186 0.227-0.317 0.294l-24.611 26.902 38.49 23.037 0.851 1.235c9.53 53.245 105.894 106.368 106.896 106.794 0.33 0.202 0.589 0.496 0.742 0.851 0.154 0.352 0.192 0.746 0.115 1.12-0.080 0.378-0.272 0.72-0.554 0.982s-0.64 0.432-1.021 0.483c-141.798 7.44-181.149-58.237-187.014-69.971-70.484 33.632-67.574 142.422 3.437 173.709 74.115 34.912 176.138 34.198 216.63 32.336 107.302-2.294 223.859 28.304 291.613 68.538 0.899 3.245 1.030 6.653 0.384 9.955-0.646 3.306-2.051 6.413-4.106 9.078-19.315 22.323-92.72 21.034-134.502 14.88-3.728-0.474-7.494 0.541-10.48 2.822-2.989 2.282-4.96 5.648-5.485 9.37-0.528 3.722 0.432 7.501 2.672 10.522 2.237 3.021 5.574 5.040 9.286 5.619 12.592 1.859 124.342 16.883 160.115-24.467 4.774-5.533 8.202-12.096 10.016-19.174 21.562 14.554 42.042 35.661 34.912 63.53zM762.454 677.952c-0.067-3.75-1.603-7.324-4.282-9.952-2.675-2.628-6.275-4.101-10.026-4.101-3.754 0-7.354 1.473-10.029 4.101s-4.214 6.202-4.282 9.953v15.738c0.054 3.759 1.587 7.345 4.266 9.984 2.675 2.639 6.285 4.118 10.045 4.118 3.757 0 7.366-1.479 10.045-4.118 2.675-2.639 4.208-6.225 4.262-9.984v-15.739zM299.568 751.069c63.872 34.022 133.577 55.72 205.472 63.96-29.475 31.908-94.579 80.843-217.348 80.843-5.046-1.093-22.732 3.317-19.175-5.865 0.716-0.859 47.793-70.114 31.052-138.938z" />
<glyph unicode="&#xe905;" glyph-name="coin" d="M359.466 398.477h67.6c7.885 0 15.6-6.797 15.6-16.838s-7.715-16.838-15.6-16.838h-67.6v33.677zM359.466 309.334h67.6c7.885 0 15.6-6.8 15.6-16.838 0-10.042-7.715-16.838-15.6-16.838h-67.6v33.677zM342.307 678.773c46.566 108.911 154.685 185.227 280.627 185.227 168.483 0 305.066-136.582 305.066-305.066 0-125.942-76.317-234.061-185.226-280.63 3.261 19.101 4.96 38.733 4.96 58.762 0 191.459-155.21 346.668-346.669 346.668-20.029 0-39.661-1.699-58.758-4.96zM401.066 642.133c168.486 0 305.069-136.581 305.069-305.068 0-168.483-136.582-305.066-305.069-305.066-168.483 0-305.066 136.582-305.066 305.066 0 168.486 136.582 305.068 305.066 305.068zM420.134 461.866c0 15.318-12.416 27.734-27.734 27.734s-27.734-12.416-27.734-27.734v-7.923h-32.931c-15.318 0-27.734-12.416-27.734-27.731v-178.288c0-15.315 12.416-27.734 27.734-27.734h32.931v-7.923c0-15.315 12.416-27.731 27.734-27.731s27.734 12.416 27.734 27.731v7.923h6.931c39.981 0 71.069 33.114 71.069 72.307 0 16.643-5.606 32.192-15.12 44.57 9.514 12.381 15.12 27.93 15.12 44.573 0 39.19-31.088 72.304-71.069 72.304h-6.931v7.923z" />
<glyph unicode="&#xe906;" glyph-name="daga" d="M495.686 114.448c2.845-0.17 6.115-0.106 7.306-3.229 6.944-18.198 18.752-33.955 29.731-49.267 18.474-25.738 35.654-53.517 63.75-70.992 0.87-0.554 1.613-1.338 2.314-2.102 8.474-9.005 13.379-8.39 19.197 2.653 3.93 7.475 7.094 14.822 6.074 24.019-1.251 11.213 5.309 21.386 6.352 32.81 2.355 25.824 1.082 51.584 1.549 77.363 0.128 7.008 0.256 14.611 7.562 17.094 6.816 2.317 13.398-1.187 19.472-5.606 22.829-16.669 33.107-42.173 46.954-65.216 5.629-9.363 11.51-18.602 17.69-27.606 1.763-2.57 4.013-6.71 7.814-5.478 3.61 1.168 4.246 5.437 4.374 9.024 0.234 6.352 0.15 12.72 0.256 19.091 0.064 3.187-0.128 6.416 0.426 9.514 2.122 11.978 8.832 15.696 17.498 7.901 18.496-16.627 38.458-32.32 50.013-55.13 2.397-4.736 6.88-5.158 9.958-8.387 11.488-12.042 19.558-26.63 30.515-38.989 2.083-2.336 3.888-5.862 7.645-3.782 3.251 1.786 1.574 5.056 0.765 7.645-5.478 17.52-3.821 36.592-11.699 53.558-8.368 18.051-11.341 38.586-25.059 54.154-0.678 0.784-1.36 1.741-1.613 2.717-5.821 22.003-22.554 36.634-35.635 53.878-25.738 33.914-56.851 63.155-82.672 96.922-15.293 20.026-27.629 41.453-31.366 67.021-2.381 16.288-5.776 32.429-8.282 48.694-1.149 7.411-3.654 9.578-11.853 8.451-26.586-3.651-52.176-2.208-76.726 12.147-10.106 5.926-19.792 11.574-28.138 19.686-6.093 5.926-6.39 12.531-1.805 19.091 5.034 7.2 12.72 6.435 18.71 2.634 17.117-10.893 36.102-16.288 55.638-18.752 22.426-2.845 41.197 5.67 58.592 20.707 15.67 13.549 26.566 30.602 40.24 45.488 13.722 14.906 34.234 15.482 51.882 21.789 30.624 10.957 62.902 10.765 94.97 11.19 3.885 0.042 8.090-0.531 11.552 0.723 5.245 1.91 11.341 4.842 6.435 12.23-21.917 32.96-55.427 50.627-89.638 67.277-16.778 8.154-35.741 11.277-51.328 22.298-2.038 1.443-4.25 2.378-5.309 4.822-11.002 25.61-31.366 42.471-53.389 58.080-19.878 14.101-42.579 19.368-65.898 23.275-15.862 2.655-31.597 6.966-47.76 6.35-16.458-0.637-32.534-4.46-48.694-7.688-12.678-2.527-25.546-3.589-37.798-8.431-17.946-7.114-35.53-14.525-52.56-23.976-17.075-9.45-32.96-20.237-48.589-31.578-11.085-8.048-22.045-16.33-29.053-28.605-0.87-1.507-2.058-2.973-3.418-4.013-18.307-14.061-26.206-35.507-38.736-53.709-6.774-9.853-12.253-20.387-17.116-30.918-6.244-13.485-11-27.885-14.186-42.662-5.925-27.565-10.236-55.386-13.145-83.354-2.421-23.213-1.465-46.592-0.276-69.91 1.083-20.768 1.104-41.664 3.228-62.326 2.081-20.304 4.714-40.541 5.288-60.97 1.147-39.776 4.311-79.382 2.315-119.37-1.848-36.909-6.562-73.987-1.211-111.107 2.782-19.325 2.463-17.968 20.472-9.811 23.806 10.765 41.156 28.051 56.83 47.632 21.51 26.886 35.568 58.038 49.478 89.254 2.931 6.586 4.077 16.8 15.693 15.184-4.797-3.248-5.882-8.598-7.728-13.549-19.347-51.328-45.043-98.406-88.98-133.363-9.769-7.773-20.365-14.058-31.939-18.666-12.317-4.906-18.178-2.166-20.174 11.149-4.12 27.437-2.548 55.066-1.041 82.608 3.207 58.019 2.591 115.93-1.89 173.862-5.012 64.854-11.107 129.731-5.606 194.906 6.265 74.368 31.324 141.69 79.382 198.858 43.469 51.709 100.086 83.224 165.853 98.577 47.485 11.085 94.63 11.149 141.584-2.57 39.818-11.637 70.589-35.316 92.144-70.545 6.307-10.301 14.035-16.544 25.76-20.026 42.854-12.787 80.016-35.382 111.13-67.638 5.923-6.138 10.701-13.187 14.97-20.534 4.461-7.69 1.85-12.787-6.115-15.61-7.475-2.656-15.312-2.55-23.104-2.675-43.536-0.701-85.818-7.987-126.547-23.744-7.242-2.803-12.656-6.774-17.034-13.334-9.002-13.53-18.666-26.483-30.621-37.824-25.293-23.974-54.576-29.434-87.494-21.363-14.205 3.485-27.286 9.642-40.349 15.949-4.077 1.974-9.152 5.523-12.528 0.934-3.866-5.222 2.4-7.984 5.456-10.768 30.922-28.074 66.576-37.757 107.075-26.246 10.298 2.931 11.914-2.378 12.083-10.045 0.362-17.011 1.888-33.872 4.989-50.627 5.904-32.003 22.406-58.080 43.005-82.653 22.275-26.586 46.909-51.072 68.784-77.978 43.45-53.411 70.122-114.189 80.336-182.186 0.723-4.886 0.765-9.875 0.912-14.822 0.086-2.592-0.742-4.97-3.482-5.968-2.675-0.976-4.883 0.211-6.646 2.125-2.144 2.355-4.269 4.733-6.16 7.283-28.669 38.733-62.666 72.966-93.162 110.15-1.677 2.061-3.206 5.248-6.646 4.419-4.058-0.998-3.654-4.864-3.907-7.859-1.062-11.594-0.064-23.36-2.656-34.87-1.021-4.544-1.846-9.45-6.966-11.040-5.754-1.808-8.112 3.354-10.87 6.688-18.243 21.83-30.71 47.485-46.912 70.675-6.477 9.28-12.381 19.005-20.515 26.989-3.674 3.613-7.347 9.155-13.315 6.563-6.285-2.739-3.93-9.28-3.376-14.227 4.182-37.312 1.126-74.179-6.838-110.685-2.483-11.402-5.776-22.678-11.213-33.085-5.181-9.917-10.086-11.213-19.622-5.245-20.154 12.592-35.274 30.493-49.862 48.736-22.106 27.67-42.346 56.595-55.725 89.744l-0.019 0.128zM292.689 864.511c37.183-1.444 70.271-13.124 101.849-29.9 9.069-4.821 18.010-9.832 27.776-13.166 10.534-3.589 14.144-2.102 16.947 8.877 3.696 14.504 3.866 29.391 2.72 44.277-1.213 15.885-3.59 31.578-7.328 47.102-3.376 14.037 1.891 19.134 16.31 15.736 26.269-6.18 48.205-19.835 66.467-39.542 12.298-13.251 22.938-27.82 33.872-42.154 8.346-10.937 14.314-12.232 26.461-6.137 14.992 7.539 25.251 18.837 29.475 35.486 4.822 18.964 6.563 38.268 7.709 57.699 1.043 17.796 8.198 21.682 22.915 12.168 38.566-24.889 72.374-54.534 92.845-96.752 18.518-38.204 20.685-77.385 5.629-117.309-4.058-10.746-10.173-20.302-18.051-28.499-10.384-10.831-23.872-18.37-42.73-8.792-44.381 22.532-92.269 24.783-140.88 21.47-82.8-5.67-152.73-41.071-215.611-92.866-20.387-16.797-42.303-29.283-70.143-28.051-41.517 1.824-71.906 22.72-96.052 54.639-8.983 11.871-16.819 24.528-22.383 38.416-4.884 12.168-2.867 18.306 8.686 24.549 21.427 11.595 44.851 16.989 68.593 21.364 15.991 2.952 32.215 4.863 47.76 9.811 18.497 5.861 23.657 16.84 16.925 35.103-5.309 14.42-13.315 27.225-22.744 39.308-12.721 16.288-9.981 25.25 9.471 32.194 4.311 1.55 8.813 2.846 13.336 3.419 6.987 0.913 14.079 1.104 20.153 1.529l0.021 0.021zM693.12 357.094c1.293 28.39 12.4 55.002 30.643 78.912 2.845 3.738 6.435 6.88 11.658 5.946 4.822-0.848 5.712-5.158 6.179-8.918 4.928-38.714 25.654-70.016 47.782-100.384 25.802-35.421 47.187-72.947 59.674-115.165 2.528-8.515 4.077-17.178 3.843-26.118-0.211-8.093-4.416-11.574-12.358-10.429-12.125 1.763-22.998 6.861-33.299 13.168-32.576 20.026-60.269 45.53-83.904 75.517-19.75 25.056-29.264 53.706-30.218 87.45v0.022zM413.309 103.914c4.653 5.139 6.48 0.278 8.771-2.547 6.586-8.134 7.645-18.752 12.381-27.862 7.667-14.8 13.594-30.538 20.282-45.869 1.251-2.867 1.974-6.586 6.032-6.371 3.354 0.17 3.926 3.568 5.245 6.010 3.757 7.072 6.115 14.378 3.398 22.339-2.698 7.923 4.691 12.912 5.437 19.856 1.229 11.574 2.992 23.062 4.438 34.614 0.614 4.95 1.357 9.962 4.438 13.952 2.483 3.229 4.16 2.102 4.096-1.805-2.803-31.597-6.56-63.091-15.203-93.715-1.722-6.115-2.317-14.97-10.365-15.565-8.006-0.595-9.917 8.090-12.72 13.802-11.171 22.787-21.171 46.083-29.709 69.997-1.658 4.63-2.867 9.491-6.499 13.146l-0.022 0.019zM448.816 860.179c0.915 19.856-0.528 39.478-6.262 58.697-2.803 9.429 1.763 13.612 11.149 10.448 26.31-8.877 48.099-24.337 65.939-45.573 12.166-14.483 22.531-30.601 37.862-42.324 3.187-2.442 6.243-5.67 10.301-3.716 18.176 8.792 37.587 17.095 44 38.501 5.354 17.86 8.198 36.463 9.536 55.151 1.168 16.352 6.477 19.495 20.515 11.51 30.602-17.414 53.046-43.258 72.691-71.609 22.912-33.086 28.413-69.867 19.962-108.878-3.568-16.479-8.157-32.322-20.726-45.106-14.144-14.334-27.098-16.458-42.474-3.908-4.333 3.547-8.726 5.776-13.994 6.774-21.747 4.12-42.323 13.846-65.091 13.209-29.008-0.807-58.355 4.46-86.896-5.097-4.97-1.656-10.365-2.251-15.632-2.867-30.877-3.653-58.589-16.182-86.346-29.221-16.544-7.772-33.341-15.97-47.27-26.864-18.307-14.313-38.163-26.397-56.022-41.071-16.161-13.251-34.148-15.651-54.216-16.416-28.053-1.062-46.89 15.312-67.616 29.392-19.389 13.166-27.48 34.572-39.478 53.027-6.413 9.875-1.062 19.283 10.087 23.657 28.648 11.212 58.379 17.392 88.789 21.3 12.041 1.55 24.634 4.12 33.468 13.867 11.298 12.466 12.742 30.559 3.78 47.506-5.245 9.917-9.854 20.089-18.178 28.393-9.047 9.026-6.031 19.792 6.010 23.381 10.724 3.207 21.576 7.135 33.171 5.139 27.054-4.693 54.683-8.049 79.147-21.427 12.128-6.626 25.485-11.298 36.506-19.431 19.347-14.271 34.742 2.081 37.101 20.302 0.976 7.645 0.17 15.524 0.17 23.296l0.019-0.043zM700.211 350.49c-0.893 26.288 10.832 48.63 22.128 71.034 1.699 3.376 4.544 6.797 9.133 6.010 4.246-0.742 5.098-4.755 5.754-8.112 4.227-21.597 13.718-40.262 25.462-59.101 9.898-15.862 19.155-32.534 30.432-47.293 19.114-25.059 30.368-53.981 44.723-81.376 5.437-10.365 5.226-21.894 6.266-33.088 0.637-6.646-2.634-9.619-9.834-8.259-10.403 1.952-18.643 8.387-27.754 12.848-12.637 6.179-21.853 17.901-35.296 23.104-2.506 0.976-3.504 3.229-4.8 5.373-3.587 5.904-7.261 11.51-14.227 14.525-8.854 3.824-10.448 14.314-17.117 20.749-4.758 4.566-10.15 9.875-13.146 16.842-9.302 21.638-20.576 42.557-21.683 66.746h-0.042zM412.269 103.83l-1.040 0.083c-5.776-0.125-7.421-4.275-9.018-8.304-0.307-0.771-0.611-1.536-0.941-2.272-2.515-5.565-4.95-11.165-7.382-16.768-6.205-14.275-12.41-28.55-19.93-42.246-11.318-20.621-25.504-38.906-41.581-56.106-14.184-15.162-30.94-25.994-49.245-34.954-10.767-5.267-13.527-3.866-16.522 7.984-4.513 17.875-3.663 36.090-2.819 54.17 0.077 1.658 0.155 3.315 0.228 4.973 0.522 12.067 0.921 24.141 1.32 36.211 0.528 15.952 1.055 31.907 1.865 47.862 0.587 11.555-0.012 23.146-0.61 34.73-0.376 7.277-0.752 14.557-0.834 21.824-0.297 26.438-2.209 52.73-4.417 78.976-4.077 48.397-7.327 96.816-5.904 145.405 0.636 21.827 4.161 43.373 7.681 64.893 0.357 2.182 0.714 4.365 1.068 6.547 3.61 22.211 9.726 43.936 18.836 64.387 9.811 22.022 22.51 42.598 35.613 62.986 22.193 34.573 52.538 60.333 86.644 81.421 27.99 17.329 58.016 31.854 90.765 38.098 4.333 0.828 8.669 1.707 13.005 2.588 21.366 4.338 42.819 8.692 64.973 6.926 44.022-3.504 86.73-11.828 121.898-40.668 14.269-11.701 26.694-26.186 36.080-42.451 5.075-8.79 11.85-14.675 21.277-17.456 39.542-11.658 73.904-32.576 105.949-57.955 7.098-5.61 11.83-12.934 16.55-20.24l0.003-0.003c1.76-2.726 3.523-5.453 5.405-8.083 4.246-5.946-1.558-9.715-6.102-12.666l-0.006-0.006c-0.224-0.144-0.448-0.288-0.666-0.432-2.752-1.805-6.118-1.594-9.344-1.395-0.608 0.038-1.213 0.077-1.805 0.099-26.205 1.085-52.134-2.314-77.917-6.032-14.611-2.102-28.838-7.261-42.749-12.55-3.866-1.466-7.709-2.717-11.722-3.629-8.323-1.869-14.822-6.246-20.003-13.21-2.032-2.736-4.019-5.494-6.010-8.253l-0.003-0.006c-8.848-12.272-17.667-24.506-29.856-34.32-21.45-17.286-43.83-24.72-71.949-19.898-11.514 1.974-21.69 6.269-31.859 10.563-4.931 2.080-9.862 4.163-14.944 5.978-1.062 0.381-2.163 0.861-3.283 1.354-5.162 2.256-10.714 4.685-14.429-2.032-3.85-6.966 1.76-11.891 6.944-16.442l0.234-0.208c25.971-22.787 56.275-32.192 90.486-29.773 1.914 0.128 3.824 0.595 5.734 1.082 15.738 3.952 18.157 1.232 19.792-15.968 2.592-26.992 6.054-54.067 18.243-78.723 8.099-16.394 19.814-30.333 31.53-44.278l0.006-0.006c2.624-3.123 5.251-6.246 7.837-9.398 9.238-11.264 19.165-21.936 29.085-32.598 13.699-14.726 27.382-29.434 39.21-45.658 11.763-16.141 23.062-32.79 32.384-51.030 11.002-21.555 19.494-43.683 27.395-66.301 3.238-9.286 4.909-18.896 6.576-28.506 1.142-6.586 2.288-13.174 3.936-19.658 0.976-3.888-0.445-7.094-4.205-8.73-4.099-1.782-7.283-0.55-10.109 3.059-5.715 7.286-11.798 14.323-17.866 21.341l-0.010 0.013c-7.638 8.835-15.251 17.645-22.090 26.896-7.258 9.814-15.485 18.675-23.693 27.517-7.741 8.333-15.466 16.653-22.349 25.744-2.803 3.693-6.816 8.346-12.381 5.882-4.97-2.208-5.392-7.264-5.69-12.595-0.208-3.549-0.16-7.107-0.109-10.659v-0.003c0.074-5.158 0.144-10.31-0.573-15.414l-0.006-0.042c-0.656-4.621-1.434-10.090-7.424-11.085-4.96-0.835-7.254 2.704-9.514 6.189l-0.186 0.285c-0.064 0.099-0.128 0.198-0.192 0.298-0.15 0.227-0.301 0.458-0.451 0.682-9.446 14.042-18.202 28.509-26.957 42.973v0.003c-5.888 9.731-11.776 19.459-17.875 29.056-6.074 9.558-14.672 17.053-23.315 24.253-3.44 2.845-7.773 5.075-12.72 2.294-4.694-2.634-5.29-6.755-4.992-11.552 1.827-30.157 2.547-60.397-2.592-90.234-0.65-3.776-1.181-7.594-1.712-11.421v0c-1.718-12.374-3.446-24.832-9.35-36.234-1.933-3.715-4.077-7.2-6.861-10.47-4.819-5.648-8.877-4.861-13.93-0.486-20.282 17.539-38.864 36.419-55.299 57.846-8.189 10.675-15.309 22-22.419 33.312-6.182 9.837-12.358 19.661-19.226 29.037-1.251 1.712-1.827 3.782-2.4 5.837-0.938 3.379-1.866 6.717-5.776 8.33-2.272 2.144-4.925 2.634-7.878 1.824-4.186-3.619-4.589-8.432-4.992-13.261-0.096-1.149-0.192-2.298-0.339-3.43l-0.198-1.526c-3.139-24.17-6.282-48.368-12.499-71.994-1.232-4.714-3.101-9.238-9.11-9.363-5.194-0.099-6.861 3.546-8.659 7.472-0.134 0.298-0.272 0.595-0.41 0.893-4.618 9.811-8.941 19.75-13.264 29.69l-0.003 0.006c-3.866 8.89-7.731 17.779-11.811 26.582-1.082 2.336-1.782 4.842-2.486 7.363-0.973 3.478-1.955 6.986-3.949 10.112-0.307 0.483-0.586 1.005-0.861 1.52-1.197 2.24-2.378 4.458-5.914 3.578l0.019 0.042-1.040-0.083zM603.949 642.827c-25.59-15.95-41.539-38.564-39.437-77.831 0.534-2.029 1.008-4.33 1.526-6.835 2.125-10.275 4.957-23.974 15.334-36.23 13.933-16.458 30.752-23.341 50.842-25.568 23.571-2.614 43.171 4.499 60.205 21.638 16.458 16.544 24.995 35.315 21.68 58.314-0.442 3.082-0.186 6.147 0.070 9.21 0.406 4.874 0.816 9.734-1.597 14.64-5.267 10.723-10.768 20.406-19.878 29.050-23.699 22.491-62.16 30.199-88.746 13.614zM620.704 569.584c0.083 18.432 12.614 31.747 29.75 31.597 17.034-0.17 31.114-14.141 31.069-30.854-0.042-17.626-14.122-31.238-31.939-30.899-16.416 0.298-28.944 13.402-28.861 30.157h-0.019z" />
<glyph unicode="&#xe907;" glyph-name="flash" d="M191.121 415.36l431.72 442.46-62.080-469.641h-358.18c-14.16 0-21.34 17.040-11.46 27.181zM832.621 479.139l-430.24-440.96 62.080 469.642h356.061c14.941 0 22.541-17.981 12.099-28.682z" />
<glyph unicode="&#xe908;" glyph-name="livecasino" d="M698.051 240.013c-19.459 34.71-52.742 43.811-88.502 26.083-33.962-16.845-53.456-46.016-67.514-79.776-1.565-3.734-3.331-7.37-4.246-9.405-13.382 21.395-23.536 45.101-40.144 62.758-55.152 58.755-97.942 50.874-139.75-5.568-27.984-37.798-22.819-71.658 15.149-99.507 5.536-4.077 10.73-10.154 13.245-16.438 10.323-25.709 19.357-51.926 29.206-77.837 10.154-26.762 6.522-51.181-12.058-72.95-4.483-5.264-8.998-10.528-13.482-15.792 42.045-10.154 85.955-15.587 131.158-15.587 36.714 0 72.608 3.6 107.35 10.39-2.070 15.453 0.646 31.11 7.539 47.206 15.386 35.862 28.63 72.611 43.744 108.576 4.448 10.595 10.867 20.986 18.576 29.443 15.046 16.506 24.451 35.456 20.070 57.021-3.6 17.795-11.341 35.389-20.307 51.35l-0.035 0.032zM851.93 279.648c-24.384-21.296-46.39-40.518-70.029-61.165-19.696 34.707-63.539 51.146-61.942 98.214-11.446-51.382-1.565-100.288 11.92-149.328 15.859 15.962 32.806 32.979 50.192 50.467 38.989-44.963 77.568-89.488 116.422-134.317 20.24 18.678 39.123 38.851 56.41 60.349-34.438 45.408-68.605 90.474-102.973 135.811v-0.032zM347.338 229.792l0.035 0.035c-16.675-20.989-19.459-44.998-9.373-71.014-20.958 2.275-41.576 4.499-62.034 6.707l-0.061 0.006c-18.341 1.981-36.554 3.946-54.766 5.92l-1.087 2.003c13.584 2.618 27.169 5.232 42.349 8.186-3.854 1.686-7.642 3.389-11.392 5.075-10.228 4.595-20.176 9.069-30.414 12.72-3.498 1.258-9.917-1.085-13.041-3.939-23.661-21.603-47.091-43.478-71.399-66.176l-0.042-0.038c-6.556-6.122-13.175-12.301-19.881-18.554-18.95 20.074-36.406 41.571-52.232 64.291 21.396 21.869 42.791 43.741 64.153 65.613 1.872 1.92 3.609 4.026 5.114 5.853 0.624 0.758 1.208 1.466 1.746 2.093-20.784 8.49-41.195 16.845-61.606 25.2l0.713 1.136 0.713 1.139c5.223-1.050 10.436-2.269 15.65-3.491 11.974-2.8 23.949-5.6 36.039-6.358 18.034-1.12 34.097 6.182 44.659 21.226-7.129 4.454-14.305 8.733-21.442 12.989-15.676 9.347-31.165 18.582-45.563 29.293-35.829 26.627-49.346 71.219-31.109 106.573 9.373 18.17 23.569 34.774 38.512 48.97 24.554 23.331 50.228 45.917 77.737 65.616 58.413 41.872 91.39 98.588 106.944 167.563l1.319 5.853c10.375 46.084 20.845 92.589 46.193 133.218 13.245 21.26 30.090 40.856 47.92 58.583 13.107 13.041 30.87 19.29 50.227 5.875 12.432 27.814 34.71 36.135 60.112 37.765 34.608 2.241 65.818-9.271 94.48-27.509 27.51-17.49 49.789-40.278 69.043-66.836 12.736-17.558 28.122-33.859 44.829-47.647 44.186-36.441 87.315-73.39 121.683-119.985 63.507-86.126 76.48-179.655 42.451-279.739-8.602-25.296-19.418-49.85-30.8-75.677-5.29-12.003-10.701-24.282-16.064-37.040-6.237 8.886-12.176 17.203-17.862 25.165-12 16.8-22.874 32.022-33.014 47.715-22.141 34.266-52.909 47.274-92.848 42.179-17.898-2.275-36.102-3.77-54.102-3.19-44.25 1.392-59.056 17.286-60.349 62.013-0.086 3.168-0.336 6.336-0.637 10.211-0.163 2.064-0.339 4.33-0.518 6.906-3.43-2.81-6.64-5.507-9.718-8.096-6.819-5.734-13.002-10.931-19.555-15.61-1.325-0.944-2.653-1.901-3.981-2.858-9.235-6.65-18.63-13.414-28.96-17.69-2.198-0.909-4.387-1.766-6.557-2.618-13.459-5.267-26.099-10.218-34.435-25.366-3.635-6.624-21.363-9.475-31.549-7.677-18.95 3.331-37.549 8.704-56.134 14.074-5.862 1.693-11.725 3.386-17.597 5.014-36.813 10.221-64.934-2.784-88.028-31.517-20.079-24.998-40.459-49.76-61.053-74.784-9.537-11.587-19.12-23.229-28.74-34.979 18.713-20.579 38.682-42.554 60.044-66.086 2.3 2.013 4.578 3.987 6.832 5.942 4.967 4.307 9.822 8.515 14.564 12.838 17.966 16.403 35.931 32.838 53.761 49.379 16.436 15.213 32.468 15.792 54.065 0.102-7.443 0.896-13.229 1.581-19.971 2.381l-2.816 0.336c0.797-2.496 1.613-4.861 2.4-7.146 1.67-4.842 3.219-9.331 4.189-13.946 3.6-16.947 4.278-33.043-7.744-48.192zM484.883 731.231c-31.824 22.958-43.165 56.613-46.97 94.48l-9.056-18.004c-15.235-30.289-30.211-60.060-45.043-89.925v0.034c-0.506-1.035-0.109-2.532 0.288-4.017 0.163-0.61 0.326-1.217 0.422-1.791-9.2-19.986-4.362-39.754 0.41-59.232 0.563-2.301 1.126-4.598 1.664-6.891 9.61-41.128 21.667-81.508 59.261-107.044 11.722-7.968 23.907-15.216 36.099-22.467 5.789-3.443 11.581-6.886 17.322-10.41 12.195-7.472 24.963-8.253 36.986-0.848 41.805 25.642 78.416 56.205 91.187 106.538 3.171 12.442 5.114 25.213 7.053 37.978 0.698 4.588 1.395 9.174 2.15 13.744 0.15 0.938 0.342 1.914 0.534 2.907 1.36 6.987 2.877 14.787-7.533 15.738l-47.443 14.366c-5.251 1.309-10.477 2.547-15.661 3.776-29.395 6.968-57.507 13.631-81.67 31.068z" />
<glyph unicode="&#xe909;" glyph-name="lode" d="M674.445 864c-152.509 0-270.963-134.368-251.539-285.446 107.744-26.944 192.758-111.77 219.882-219.36 150.714-19.123 285.213 98.883 285.213 251.405 0 139.733-113.744 253.402-253.555 253.402zM765.376 725.404l-93.597-212.761c-5.37-12.205-19.648-17.968-32.147-12.512-12.326 5.427-17.936 19.808-12.506 32.125 18.381 41.808 3.402 7.741 78.541 178.588-17.245 0-89.165 0-99.827 0-13.462 0-24.39 10.904-24.39 24.375 0 13.455 10.928 24.375 24.39 24.375h137.194c17.616 0 29.386-18.104 22.342-34.19zM436.307 523.514c-165.883 60.493-340.307-63.478-340.307-238.112 0-139.734 113.744-253.402 253.555-253.402 175.069 0 298.963 174.72 238.138 340.486-25.69 69.907-81.366 125.466-151.386 151.027zM349.555 121.846c-57.856 0-104.932 47.043-104.932 104.877 0 34.515 16.781 65.197 42.603 84.304-46.958 53.117-9.312 137.917 62.328 137.917 71.552 0 109.36-84.714 62.326-137.917 25.824-19.107 42.605-49.789 42.605-84.304 0-57.834-47.075-104.877-104.931-104.877zM349.555 282.835c-30.961 0-56.149-25.171-56.149-56.112s25.188-56.128 56.149-56.128c30.96 0 56.147 25.187 56.147 56.128s-25.187 56.112-56.147 56.112zM383.76 362.227c1.878 18.851-11.894 35.654-30.755 37.53-18.864 1.875-35.677-11.885-37.554-30.736s11.893-35.654 30.757-37.53c18.861-1.875 35.677 11.885 37.552 30.736z" />
<glyph unicode="&#xe90a;" glyph-name="nohu" d="M843.146 711.047c0.419-3.274 0.656-6.61 0.656-9.994v-337.402c0-3.357-0.237-6.659-0.65-9.898 68.723 30.166 116.848 98.861 116.848 178.595 0 80.042-48.064 148.64-116.854 178.698zM765.053 727.303h-506.106c-14.492 0-26.25-11.758-26.25-26.25v-170.419c58.926 34.042 126.253 52.342 194.954 52.342 90.931 0 179.466-32.048 249.28-90.234l60.394-50.342h27.728c9.2 0 18.032-1.597 26.25-4.518v263.171c0 14.492-11.757 26.25-26.25 26.25zM712.554 590.448h-5.606v-5.6c0-14.499-11.75-26.25-26.25-26.25-14.493 0-26.25 11.75-26.25 26.25v5.6h-5.6c-14.499 0-26.25 11.75-26.25 26.25s11.75 26.25 26.25 26.25h5.6v5.599c0 14.499 11.757 26.25 26.25 26.25 14.499 0 26.25-11.751 26.25-26.25v-5.599h5.606c14.493 0 26.25-11.75 26.25-26.25s-11.757-26.25-26.25-26.25zM765.053 389.901h-168.704c-14.499 0-26.25-11.75-26.25-26.25v-337.402c0-14.499 11.75-26.25 26.25-26.25h168.704c14.493 0 26.25 11.75 26.25 26.25v337.402c0 14.499-11.757 26.25-26.25 26.25zM522.118 389.901h-431.868c-14.499 0-26.25-11.75-26.25-26.25v-337.402c0-14.499 11.751-26.25 26.25-26.25h431.868c-2.922 8.218-4.518 17.050-4.518 26.25v337.402c0 9.2 1.597 18.032 4.518 26.25zM317.053 223.069c0-14.496-11.758-26.25-26.25-26.25-14.499 0-26.25 11.754-26.25 26.25v28.112c0 14.499 11.751 26.25 26.25 26.25 14.492 0 26.25-11.75 26.25-26.25v-28.112zM643.318 452.41c-60.41 50.346-137.005 78.067-215.667 78.067s-155.265-27.722-215.674-78.067l-12.011-10.010h455.361l-12.010 10.010zM381.741 811.652h5.6v-5.599c0-14.499 11.75-26.25 26.25-26.25s26.25 11.751 26.25 26.25v5.599h5.6c14.496 0 26.25 11.751 26.25 26.25s-11.754 26.25-26.25 26.25h-5.6v5.599c0 14.499-11.75 26.25-26.25 26.25s-26.25-11.751-26.25-26.25v-5.599h-5.6c-14.499 0-26.25-11.751-26.25-26.25s11.75-26.25 26.25-26.25zM90.25 520.16h5.599v-5.606c0-14.49 11.751-26.25 26.25-26.25s26.25 11.76 26.25 26.25v5.606h5.599c14.499 0 26.25 11.75 26.25 26.25 0 14.493-11.751 26.25-26.25 26.25h-5.599v5.6c0 14.499-11.751 26.25-26.25 26.25s-26.25-11.75-26.25-26.25v-5.6h-5.599c-14.499 0-26.25-11.757-26.25-26.25 0-14.499 11.751-26.25 26.25-26.25z" />
<glyph unicode="&#xe90b;" glyph-name="quayso" d="M512 474.349c-14.528 0-26.349-11.821-26.349-26.349 1.325-34.906 51.379-34.896 52.698 0 0 14.528-11.818 26.349-26.349 26.349zM679.078 684.69l-25.696-44.505-45.635 26.348 25.731 44.568c-29.395 13.625-61.437 22.462-95.13 25.512v-51.484h-52.698v51.484c-33.693-3.049-65.734-11.886-95.13-25.512l25.731-44.568-45.635-26.348-25.696 44.505c-26.959-19.086-50.527-42.655-69.613-69.615l44.503-25.696-26.348-45.632-44.567 25.728c-13.625-29.392-22.462-61.437-25.512-95.13h51.485v-52.694h-51.487c3.049-33.696 11.888-65.738 25.512-95.13l44.566 25.728 26.348-45.635-44.503-25.693c19.086-26.96 42.656-50.531 69.615-69.616l25.693 44.502 45.635-26.346-25.728-44.566c29.392-13.626 61.437-22.464 95.13-25.514v51.485h52.694v-51.485c33.696 3.050 65.738 11.888 95.13 25.514l-25.728 44.566 45.635 26.346 25.693-44.502c26.96 19.085 50.531 42.656 69.616 69.616l-44.506 25.693 26.349 45.635 44.566-25.728c13.626 29.392 22.464 61.437 25.514 95.13h-51.485v52.694h51.485c-3.050 33.693-11.888 65.738-25.514 95.13l-44.566-25.728-26.349 45.632 44.506 25.696c-19.085 26.959-42.653 50.528-69.613 69.615zM670.086 421.651h-83.574c-7.952-22.422-25.744-40.214-48.166-48.166v-83.574h-52.694v83.574c-22.419 7.952-40.211 25.744-48.163 48.166h-83.578v52.694h83.578c7.952 22.419 25.744 40.211 48.163 48.163v83.578h52.694v-83.578c22.422-7.952 40.214-25.744 48.166-48.163h83.574v-52.694zM289.27 188.003l-74.804-74.8c169.329-150.874 425.595-151.008 595.070 0l-74.803 74.8c-128.253-110.029-317.152-110.080-445.463 0zM846.797 745.534l-74.803-74.8c110.032-128.257 110.083-317.153 0-445.467l74.803-74.8c150.87 169.318 151.008 425.59 0 595.067zM734.736 707.996l74.8 74.8c-169.325 150.873-425.594 151.005-595.070 0.002l74.802-74.802c128.259 110.030 317.151 110.080 445.468 0zM252.005 670.736l-74.802 74.802c-150.873-169.329-151.003-425.595 0-595.070l74.802 74.8c-110.032 128.259-110.082 317.152 0 445.468z" />
<glyph unicode="&#xe90c;" glyph-name="slots" d="M746.662 661.333h-554.668c-16.958-0.051-33.208-6.81-45.199-18.801s-18.75-28.241-18.801-45.197v-258.774c6.949 1.904 14.128 2.838 21.333 2.774h640c7.206 0.064 14.384-0.87 21.334-2.774v258.774c-0.051 16.957-6.81 33.206-18.803 45.197-11.99 11.991-28.24 18.75-45.197 18.801zM316.581 564.266c-16.62-25.277-30.224-52.413-40.533-80.851-9.598-26.234-16.391-53.408-20.267-81.069-0.72-5.088-3.252-9.747-7.133-13.117-3.88-3.373-8.847-5.229-13.987-5.229-1-0.029-2.001 0.042-2.987 0.214-5.601 0.79-10.658 3.776-14.058 8.298s-4.867 10.205-4.075 15.808c4.334 30.563 11.842 60.592 22.4 89.6 7.097 19.498 15.581 38.461 25.387 56.746h-48c-5.658 0-11.084 2.25-15.085 6.25s-6.248 9.427-6.248 15.085c0 5.658 2.248 11.085 6.248 15.085s9.427 6.25 15.085 6.25h85.333c3.835-0.003 7.599-1.037 10.9-2.986 3.302-1.952 6.020-4.752 7.873-8.109 1.811-3.411 2.687-7.242 2.536-11.101-0.15-3.862-1.319-7.613-3.39-10.874zM529.914 564.266c-16.618-25.277-30.224-52.413-40.531-80.851-9.6-26.234-16.394-53.408-20.269-81.069-0.717-5.088-3.251-9.747-7.133-13.117-3.878-3.373-8.845-5.229-13.987-5.229-0.998-0.029-2 0.042-2.986 0.214-5.6 0.79-10.656 3.776-14.058 8.298s-4.867 10.205-4.077 15.808c4.336 30.563 11.843 60.592 22.4 89.6 7.098 19.498 15.581 38.461 25.389 56.746h-48c-5.658 0-11.085 2.25-15.085 6.25-4.003 4-6.25 9.427-6.25 15.085s2.246 11.085 6.25 15.085c4 4 9.427 6.25 15.085 6.25h85.331c3.837-0.003 7.6-1.037 10.902-2.986 3.302-1.952 6.019-4.752 7.872-8.109 1.811-3.411 2.688-7.242 2.538-11.101-0.15-3.862-1.322-7.613-3.392-10.874zM743.248 564.266c-16.621-25.277-30.224-52.413-40.534-80.851-9.597-26.234-16.39-53.408-20.266-81.069-0.72-5.088-3.251-9.747-7.133-13.117-3.882-3.373-8.848-5.229-13.987-5.229-1.002-0.029-2 0.042-2.986 0.214-5.603 0.79-10.659 3.776-14.058 8.298-3.402 4.522-4.867 10.205-4.077 15.808 4.336 30.563 11.843 60.592 22.4 89.6 7.098 19.498 15.581 38.461 25.386 56.746h-48c-5.658 0-11.082 2.25-15.085 6.25-4 4-6.246 9.427-6.246 15.085s2.246 11.085 6.246 15.085c4.003 4 9.427 6.25 15.085 6.25h85.334c3.834-0.003 7.6-1.037 10.899-2.986 3.302-1.952 6.022-4.752 7.875-8.109 1.811-3.411 2.685-7.242 2.534-11.101-0.15-3.862-1.318-7.613-3.389-10.874zM638.714 786.133l-37.12-103.467h-265.386l-36.267 96.427c-1.458 4.095-1.669 8.531-0.606 12.746s3.353 8.020 6.58 10.934c3.284 2.823 7.348 4.58 11.654 5.037s8.648-0.406 12.453-2.477l68.051-36.48 52.694 94.933c1.904 3.391 4.701 6.197 8.086 8.115 3.382 1.917 7.229 2.872 11.117 2.763s7.67-1.281 10.944-3.386c3.27-2.105 5.904-5.064 7.613-8.558l45.014-93.013 74.666 42.24c3.792 2.124 8.141 3.039 12.467 2.623s8.422-2.143 11.738-4.95c3.318-2.807 5.699-6.56 6.826-10.757s0.944-8.638-0.525-12.729zM917.328 234.666h-85.334c-11.782 0-21.331-9.552-21.331-21.331v-85.334c0-11.782 9.549-21.334 21.331-21.334h85.334c11.782 0 21.334 9.552 21.334 21.334v85.334c0 11.779-9.552 21.331-21.334 21.331zM874.662 810.666c-16.976 0-33.254-6.743-45.254-18.745-12.003-12.002-18.746-28.281-18.746-45.255v-42.667c0-16.974 6.742-33.252 18.746-45.255 12-12.002 28.278-18.745 45.254-18.745 16.973 0 33.251 6.742 45.254 18.745s18.746 28.281 18.746 45.255v42.667c0 16.974-6.742 33.252-18.746 45.255s-28.282 18.745-45.254 18.745zM874.662 192c-5.658 0-11.085 2.246-15.085 6.246-4.003 4.003-6.25 9.427-6.25 15.088v447.998c0 5.658 2.246 11.084 6.25 15.085 4 4.001 9.427 6.248 15.085 6.248s11.085-2.248 15.085-6.248c4-4.001 6.246-9.427 6.246-15.085v-447.998c0-5.661-2.246-11.085-6.246-15.088-4-4-9.427-6.246-15.085-6.246zM682.662 192h-426.668c-5.658 0-11.084-2.25-15.085-6.25s-6.248-9.427-6.248-15.085c0-5.658 2.248-11.085 6.248-15.085s9.427-6.246 15.085-6.246h426.668c5.658 0 11.085 2.246 15.085 6.246s6.246 9.427 6.246 15.085c0 5.658-2.246 11.085-6.246 15.085s-9.427 6.25-15.085 6.25zM789.328 320h-640c-16.974 0-33.252-6.742-45.255-18.746s-18.745-28.282-18.745-45.254v-170.666c0-16.976 6.743-33.254 18.745-45.258 12.002-12 28.281-18.742 45.255-18.742h640c16.973 0 33.251 6.742 45.254 18.742 12.003 12.003 18.746 28.282 18.746 45.258v170.666c0 16.973-6.742 33.251-18.746 45.254s-28.282 18.746-45.254 18.746zM682.662 106.666h-426.668c-16.974 0-33.252 6.742-45.255 18.746s-18.745 28.282-18.745 45.254c0 16.976 6.743 33.254 18.745 45.254 12.003 12.003 28.281 18.746 45.255 18.746h426.668c16.973 0 33.251-6.742 45.254-18.746 12.003-12 18.746-28.278 18.746-45.254 0-16.973-6.742-33.251-18.746-45.254s-28.282-18.746-45.254-18.746z" />
<glyph unicode="&#xe90d;" glyph-name="sport" d="M916.006 751.131c-41.827 49.237-94.125 87.81-153.933 110.955-6.592 2.553-13.802 2.55-20.394 0.002-59.808-23.145-112.112-61.718-153.936-110.957 50.861-26.619 107.325-40.651 164.131-40.651 56.81 0 113.27 14.032 164.131 40.651zM328.986 674.968v-157.733c63.139 7.52 119.792 38.458 162.214 84.509-44.906 40.211-100.87 66.66-162.214 73.224zM268.897 517.235v157.731c-61.346-6.566-117.308-33.011-162.209-73.222 42.422-46.045 99.071-76.989 162.209-84.509zM268.897 33.606v157.728c-63.138-7.523-119.787-38.461-162.209-84.509 44.902-40.208 100.864-66.656 162.209-73.219zM328.986 33.606c61.344 6.563 117.309 33.008 162.211 73.222-42.422 46.048-99.072 76.982-162.211 84.509v-157.731zM328.986 322.058v-65.946c79.523-7.725 150.995-45.805 204.266-103.302 35.443 47.338 58.714 105.59 64.634 169.248h-268.899zM0 386.515h268.897v65.939c-79.522 7.725-150.995 45.805-204.265 103.302-35.444-47.334-58.712-105.584-64.633-169.242zM533.254 555.763c-53.274-57.504-124.746-95.581-204.269-103.306v-65.942h268.899c-5.92 63.658-29.187 121.91-64.63 169.248zM64.635 152.81c53.27 57.498 124.74 95.578 204.263 103.302v65.946h-268.897c5.921-63.658 29.189-121.91 64.635-169.248zM953.693 699.372c-61.93-34.889-131.651-53.349-201.818-53.349s-139.891 18.46-201.821 53.349c-8.89-14.314-17.008-29.236-24.339-44.671 81.542-70.966 133.754-179.264 133.754-300.412 0-41.731-6.221-81.93-17.67-119.61 35.843 10.067 72.893 15.302 110.077 15.302 70.166 0 139.888-18.461 201.818-53.35 44.71 71.981 70.307 159.162 70.307 251.37s-25.597 179.395-70.307 251.372zM781.92 368.746c0-17.798-13.45-32.23-30.045-32.23-16.589 0-30.045 14.432-30.045 32.23v155.984c0 17.798 13.456 32.227 30.045 32.227 16.595 0 30.045-14.429 30.045-32.227v-155.984zM607.504 154.445c-3.651-6.467-7.494-12.797-11.482-19.014 40.371-44.73 89.734-79.872 145.661-101.517 3.296-1.277 6.742-1.914 10.195-1.914 3.45 0 6.899 0.637 10.198 1.914 59.802 23.149 112.106 61.722 153.933 110.957-50.861 26.621-107.322 40.653-164.128 40.653-49.555 0-98.842-10.682-144.378-31.078z" />
<glyph unicode="&#xe90e;" glyph-name="tablegame" d="M782.768 208l-14.768 36.928-14.768-36.928 14.768-36.928 14.768 36.928zM384 144c-167.632 0-304 136.368-304 304 0 67.392 22.8 133.216 64 186.288v48.832c-61.376-62.576-96-146.464-96-235.12 0-185.264 150.736-336 336-336h256c5.344 0 10.656 0.464 16 0.72v31.712c-5.328-0.272-10.656-0.432-16-0.432h-256zM688 80h160v256h-160v-256zM721.136 213.936l32 80c2.448 6.080 8.32 10.064 14.864 10.064s12.416-3.984 14.864-10.064l32-80c1.52-3.808 1.52-8.064 0-11.872l-32-80c-2.448-6.080-8.32-10.064-14.864-10.064s-12.416 3.984-14.864 10.064l-32 80c-1.504 3.808-1.504 8.064 0 11.872zM640 784h-256c-5.344 0-10.656-0.464-16-0.72v-31.712c5.328 0.272 10.672 0.432 16 0.432h256c167.632 0 304-136.368 304-304 0-67.376-22.784-133.216-64-186.288v-48.8c61.376 62.56 96 146.432 96 235.088 0 185.28-150.736 336-336 336zM241.232 688l14.768-36.928 14.768 36.928-14.768 36.928-14.768-36.928zM336 816h-160v-256h160v256zM302.864 682.048l-32-80c-2.448-6.064-8.32-10.048-14.864-10.048s-12.416 3.984-14.864 10.048l-32 80c-1.52 3.824-1.52 8.064 0 11.888l32 80c2.448 6.080 8.32 10.064 14.864 10.064s12.416-3.984 14.864-10.048l32-80c1.504-3.824 1.504-8.080 0-11.904zM526.768 448l-14.768 36.928-14.768-36.928 14.768-36.928 14.768 36.928zM432 320h160v256h-160v-256zM465.136 453.952l32 80c2.448 6.064 8.32 10.048 14.864 10.048s12.416-3.984 14.864-10.048l32-80c1.52-3.824 1.52-8.064 0-11.888l-32-80c-2.448-6.080-8.32-10.064-14.864-10.064s-12.416 3.984-14.864 10.064l-32 80c-1.504 3.808-1.504 8.064 0 11.888zM880 320.4c20.736 39.072 32 82.944 32 127.6 0 149.984-122.016 272-272 272h-256c-5.36 0-10.656-0.576-16-0.88v-175.12c0-8.832-7.152-16-16-16h-192c-8.848 0-16 7.168-16 16v31.6c-20.736-39.088-32-82.944-32-127.6 0-149.984 122.016-272 272-272h256c5.376 0 10.656 0.576 16 0.88v175.12c0 8.848 7.152 16 16 16h192c8.848 0 16-7.152 16-16v-31.6zM624 304c0-8.848-7.152-16-16-16h-192c-8.848 0-16 7.152-16 16v288c0 8.832 7.152 16 16 16h192c8.848 0 16-7.168 16-16v-288z" />
<glyph unicode="&#xe90f;" glyph-name="all" d="M512 874.667c-235.838 0-426.667-190.86-426.667-426.667 0-235.84 190.864-426.667 426.667-426.667 235.836 0 426.667 190.861 426.667 426.667 0 235.84-190.865 426.667-426.667 426.667zM436.706 322.509h-50.196v75.294h-50.196v-75.294h-50.196v175.689c0 41.514 33.779 75.293 75.294 75.293 41.519 0 75.294-33.779 75.294-75.293v-175.689zM612.39 322.509h-125.487v250.982h50.193v-200.784h75.294v-50.197zM788.079 322.509h-125.491v250.982h50.197v-200.784h75.294v-50.197zM361.412 523.294c-13.838 0-25.098-11.26-25.098-25.097v-50.197h50.196v50.197c0 13.837-11.259 25.097-25.098 25.097z" />
<glyph unicode="&#xe910;" glyph-name="all-1" d="M384 864h-192c-53.019 0-96-42.981-96-96v-192c0-53.018 42.981-96 96-96h192c53.018 0 96 42.982 96 96v192c0 53.019-42.982 96-96 96zM832 864h-192c-53.018 0-96-42.981-96-96v-192c0-53.018 42.982-96 96-96h192c53.018 0 96 42.982 96 96v192c0 53.019-42.982 96-96 96zM384 416h-192c-53.019 0-96-42.982-96-96v-192c0-53.018 42.981-96 96-96h192c53.018 0 96 42.982 96 96v192c0 53.018-42.982 96-96 96zM736 32c106.039 0 192 85.961 192 192s-85.961 192-192 192c-106.039 0-192-85.961-192-192s85.961-192 192-192z" />
<glyph unicode="&#xe911;" glyph-name="arrow-down" d="M789.333 364.489l-45.167 41.536-198.886-184.853v568.162h-66.56v-568.162l-198.888 184.853-45.166-41.536 277.333-257.822 277.333 257.822z" />
<glyph unicode="&#xe912;" glyph-name="arrow-left1" d="M428.489 170.667l41.536 45.167-184.854 198.886h568.163v66.56h-568.163l184.854 198.888-41.536 45.166-257.822-277.333 257.822-277.333z" />
<glyph unicode="&#xe913;" glyph-name="arrow-right1" d="M595.511 725.333l-41.536-45.166 184.853-198.888h-568.162v-66.56h568.162l-184.853-198.886 41.536-45.167 257.822 277.333-257.822 277.333z" />
<glyph unicode="&#xe914;" glyph-name="arrows-clockwise" d="M128 524.8v307.2l112.781-112.781c71.155 71.462 167.578 112.781 271.219 112.781 211.738 0 384-172.262 384-384s-172.262-384-384-384c-160.282 0-305.126 101.030-360.461 251.366-7.334 19.93 2.88 42.010 22.771 49.306 19.853 7.258 41.971-2.842 49.306-22.771 44.275-120.307 160.166-201.101 288.384-201.101 169.382 0 307.2 137.818 307.2 307.2s-137.818 307.2-307.2 307.2c-82.906 0-160.013-33.062-216.998-90.202l140.198-140.198h-307.2z" />
<glyph unicode="&#xe915;" glyph-name="arrow-up" d="M234.667 531.511l45.166-41.536 198.888 184.854v-568.163h66.56v568.163l198.886-184.854 45.167 41.536-277.333 257.822-277.333-257.822z" />
<glyph unicode="&#xe916;" glyph-name="arrow-up-right" d="M759.245 254.025c14.037 0.009 26.765 5.722 35.981 14.938 9.212 9.212 14.925 21.939 14.933 35.977l0.508 390.942c0.043 28.085-22.703 50.829-50.786 50.786l-390.943-0.507c-28.076-0.019-50.895-22.837-50.916-50.915-0.044-28.084 22.7-50.828 50.784-50.784l273.963 0.347-415.441-415.44c-18.484-18.483-18.684-48.252-0.448-66.487s48.002-18.035 66.486 0.448l415.442 415.441-0.35-273.963c-0.043-28.087 22.699-50.829 50.786-50.782z" />
<glyph unicode="&#xe917;" glyph-name="arrow-up-right-bold" d="M512 864c-82.278 0-162.706-24.398-231.117-70.109s-121.731-110.681-153.216-186.695c-31.486-76.013-39.724-159.657-23.673-240.352s55.671-154.82 113.85-213.001c58.179-58.18 132.303-97.801 213-113.852 80.695-16.051 164.339-7.812 240.354 23.676 76.011 31.484 140.983 84.804 186.692 153.216 45.713 68.412 70.11 148.838 70.11 231.117-0.115 110.294-43.981 216.038-121.971 294.028s-183.735 121.856-294.029 121.972zM672 384c0-8.486-3.371-16.627-9.374-22.626-5.999-6.003-14.14-9.374-22.626-9.374s-16.627 3.371-22.626 9.374c-6.003 5.999-9.374 14.14-9.374 22.626v114.761l-201.36-201.399c-2.973-2.974-6.503-5.333-10.387-6.942s-8.048-2.436-12.253-2.436c-4.204 0-8.368 0.828-12.253 2.436s-7.414 3.968-10.387 6.942c-2.973 2.974-5.332 6.502-6.941 10.385-1.609 3.887-2.437 8.051-2.437 12.254s0.828 8.367 2.437 12.254c1.609 3.883 3.968 7.411 6.941 10.385l201.4 201.361h-114.761c-8.486 0-16.627 3.372-22.627 9.373s-9.373 14.141-9.373 22.627c0 8.487 3.372 16.626 9.373 22.627s14.141 9.373 22.627 9.373h192c8.486 0 16.627-3.372 22.626-9.373 6.003-6.001 9.374-14.141 9.374-22.627v-192z" />
<glyph unicode="&#xe918;" glyph-name="bank" d="M89.805 32.077c4.663-6.716 12.329-10.743 20.532-10.743h803.327c8.205 0 15.868 4.028 20.531 10.743 4.685 6.737 5.76 15.33 2.88 23.019-9.741 26.052-27.951 48.905-35.349 57.498-4.736 5.542-11.669 8.738-18.97 8.738h-741.511c-7.3 0-14.234-3.196-18.97-8.738-7.397-8.593-25.61-31.445-35.352-57.498-2.88-7.689-1.807-16.282 2.882-23.019zM185.334 472.998h151.667v-301.666h-151.667v301.666zM437.001 472.998h149.999v-301.666h-149.999v301.666zM687.002 472.998h151.667v-301.666h-151.667v301.666zM139.445 530.359c4.693-4.71 11.225-7.36 17.685-7.36l709.716 0.017c6.46 0 13.018 2.628 17.711 7.343 5.086 5.088 43.102 44.679 54.11 92.639h-853.333c11.008-47.96 49.023-87.552 54.112-92.639zM922.756 673l-399.573 199.030c-7.031 3.515-15.33 3.515-22.362 0l-399.576-199.030h821.511z" />
<glyph unicode="&#xe919;" glyph-name="CalendarX" d="M736 809.026h96c16.969 0 33.25-6.915 45.248-19.227 12.002-12.308 18.752-29.007 18.752-46.414v-656.409c0-17.408-6.75-34.103-18.752-46.417-7.373-7.565-16.358-13.086-26.125-16.226-6.14-1.971-12.578-2.999-19.123-2.999h-640c-16.969 0-33.25 6.916-45.25 19.226-12 12.314-18.75 29.009-18.75 46.417v656.409c0 17.408 6.75 34.106 18.75 46.414 12 12.312 28.281 19.227 45.25 19.227h96v32.82c0 8.706 3.375 17.051 9.375 23.209 6 6.154 14.141 9.612 22.625 9.612 6.344 0 12.5-1.935 17.719-5.489 1.75-1.194 3.391-2.572 4.906-4.123 6-6.158 9.375-14.503 9.375-23.209v-32.82h320v32.82c0 8.706 3.375 17.051 9.374 23.209 6.003 6.154 14.14 9.612 22.626 9.612 5.734 0 11.311-1.579 16.171-4.503 2.33-1.402 4.501-3.113 6.455-5.108 5.999-6.158 9.374-14.503 9.374-23.209v-32.82zM192 612.102h640v131.282h-96v-32.82c0-8.706-3.375-17.051-9.374-23.209-6.003-6.154-14.14-9.611-22.626-9.611s-16.623 3.457-22.626 9.611c-2.53 2.592-4.591 5.573-6.14 8.806-2.108 4.443-3.234 9.363-3.234 14.403v32.82h-320v-32.82c0-8.706-3.375-17.051-9.375-23.209-6-6.154-14.141-9.611-22.625-9.611s-16.625 3.457-22.625 9.611c-6 6.158-9.375 14.503-9.375 23.209v32.82h-96v-131.282zM647.607 505.835l38.75-39.735-135.607-139.085 135.607-139.085-38.75-39.74-135.607 139.085-135.609-139.085-38.75 39.74 135.61 139.085-135.61 139.085 38.75 39.735 135.609-139.081 135.607 139.081z" />
<glyph unicode="&#xe91a;" glyph-name="caret-down" d="M213.333 571.11l48.692 47.557 249.975-245.879 249.975 245.879 48.691-47.558-298.667-293.776-298.667 293.776z" />
<glyph unicode="&#xe91b;" glyph-name="caret-left" d="M635.11 746.667l47.556-48.692-245.879-249.975 245.879-249.975-47.556-48.691-293.777 298.667 293.777 298.667z" />
<glyph unicode="&#xe91c;" glyph-name="caret-right" d="M388.89 149.333l-47.557 48.691 245.879 249.975-245.879 249.975 47.557 48.692 293.776-298.667-293.776-298.667z" />
<glyph unicode="&#xe91d;" glyph-name="caret-up" d="M810.667 324.89l-48.691-47.556-249.975 245.879-249.975-245.879-48.692 47.556 298.667 293.777 298.667-293.777z" />
<glyph unicode="&#xe91e;" glyph-name="casino" d="M486.861 21.333c-99.096 5.747-189.132 45.257-258.777 107.196l89.104 89.105c46.569-39.424 105.251-64.977 169.673-70.289v-126.012zM192.529 164.083c-61.939 69.645-101.448 159.68-107.196 258.778h126.010c5.315-64.422 30.869-123.106 70.29-169.673l-89.104-89.105zM85.333 473.139c5.748 99.096 45.257 189.132 107.196 258.777l89.104-89.104c-39.421-46.569-64.976-105.251-70.29-169.673h-126.010zM228.084 767.471c69.645 61.939 159.681 101.448 258.777 107.196v-126.010c-64.422-5.315-123.104-30.869-169.673-70.29l-89.104 89.104zM537.139 874.667c99.098-5.748 189.133-45.257 258.778-107.196l-89.105-89.104c-46.566 39.421-105.25 64.976-169.673 70.29v126.010zM831.471 731.916c61.939-69.645 101.449-159.681 107.196-258.777h-126.007c-5.316 64.422-30.869 123.104-70.293 169.673l89.105 89.104zM938.667 422.861c-5.747-99.098-45.257-189.133-107.196-258.778l-89.105 89.105c39.424 46.566 64.977 105.25 70.293 169.673h126.007zM795.917 128.529c-69.645-61.939-159.68-101.449-258.778-107.196v126.012c64.422 5.312 123.106 30.865 169.673 70.289l89.105-89.105zM512 196.591c-138.849 0-251.408 112.559-251.408 251.409 0 138.849 112.559 251.408 251.408 251.408s251.409-112.559 251.409-251.408c0-138.85-112.559-251.409-251.409-251.409z" />
<glyph unicode="&#xe91f;" glyph-name="check" d="M133.362 453.675l51.712 54.797c7.15 7.573 18.724 7.573 25.874 0l178.413-189.056c7.131-7.573 18.725-7.573 25.856 0l397.839 421.569c7.151 7.576 18.726 7.576 25.873 0l51.712-54.796c3.439-3.643 5.359-8.564 5.359-13.699 0-5.154-1.92-10.076-5.359-13.718l-475.424-503.781c-3.419-3.622-8.082-5.658-12.928-5.658s-9.509 2.035-12.928 5.658l-255.998 271.266c-7.15 7.578-7.15 19.84 0 27.418z" />
<glyph unicode="&#xe920;" glyph-name="check-bold" d="M412.091 129.173c-8.145-8.196-19.259-12.766-30.803-12.766s-22.658 4.57-30.803 12.766l-246.004 246.042c-25.53 25.532-25.53 66.927 0 92.412l30.803 30.81c25.538 25.532 66.888 25.532 92.418 0l153.586-153.591 415.013 415.018c25.536 25.53 66.927 25.53 92.416 0l30.805-30.811c25.527-25.53 25.527-66.92 0-92.41l-507.431-507.468z" />
<glyph unicode="&#xe921;" glyph-name="check-circle-fill" d="M512 864c-82.278 0-162.706-24.398-231.117-70.109s-121.731-110.681-153.216-186.695c-31.486-76.013-39.724-159.657-23.673-240.352s55.671-154.82 113.85-213.001c58.179-58.18 132.303-97.801 213-113.852 80.695-16.051 164.339-7.812 240.354 23.676 76.011 31.484 140.983 84.804 186.692 153.216 45.713 68.412 70.11 148.838 70.11 231.117-0.115 110.294-43.981 216.038-121.971 294.028s-183.735 121.856-294.029 121.972zM694.639 521.361l-224-224c-2.97-2.978-6.498-5.338-10.385-6.946-3.883-1.613-8.047-2.441-12.254-2.441s-8.371 0.828-12.254 2.441c-3.883 1.609-7.415 3.968-10.386 6.946l-96 96c-6.004 6.003-9.378 14.148-9.378 22.639s3.373 16.636 9.378 22.639c6.004 6.007 14.148 9.378 22.64 9.378s16.636-3.371 22.64-9.378l73.36-73.399 201.361 201.401c2.974 2.973 6.502 5.331 10.385 6.941 3.887 1.609 8.051 2.437 12.254 2.437 4.207 0 8.367-0.828 12.254-2.437 3.883-1.609 7.411-3.968 10.385-6.941s5.333-6.503 6.942-10.388c1.609-3.884 2.436-8.048 2.436-12.253s-0.828-8.368-2.436-12.254c-1.609-3.883-3.968-7.411-6.942-10.385z" />
<glyph unicode="&#xe922;" glyph-name="Clock" d="M792.55 603.235l14.997 14.978c6.763 6.752 6.763 17.699 0 24.451l-31.915 31.869c-6.763 6.752-17.728 6.752-24.491 0l-15.002-14.978c-51.721 41.443-115.153 68.859-184.329 76.51v82.249h-79.821v-82.036c-179.225-19.977-319.283-171.935-319.283-356.198 0-206.225 175.414-372.655 385.289-357.824 175.761 12.416 318.148 153.455 332.147 328.828 7.629 95.539-22.839 183.992-77.594 252.152zM636.386 340.126h-143.945c-11.294 0-20.45 9.139-20.45 20.416v198.259c0 11.277 9.156 20.418 20.45 20.418h38.921c11.294 0 20.45-9.141 20.45-20.418v-138.978h84.574c11.294 0 20.45-9.143 20.45-20.42v-38.861c0-11.277-9.156-20.416-20.45-20.416zM618.679 874.667h-213.346c-8.951 0-16.208-7.245-16.208-16.183v-59.551c0-8.937 7.257-16.183 16.208-16.183h213.346c8.951 0 16.209 7.246 16.209 16.183v59.551c0 8.938-7.258 16.183-16.209 16.183z" />
<glyph unicode="&#xe923;" glyph-name="ClockCountdown" d="M309.581 388.267c0-110.933 88.558-204.8 202.419-204.8 41.417 0 80.427 12.177 113.391 34.688 16.922 11.554 19.294 35.866 4.86 50.47l-118.251 119.642v164.587c0 20.376-18.249 36.131-38.033 32.306-92.238-17.83-164.386-99.067-164.386-196.893zM149.333 388.267c0-200.533 160.248-366.933 362.667-366.933 198.199 0 362.667 162.133 362.667 366.933 0 98.133-37.952 183.467-96.994 247.467l23.492 23.765c12.646 12.796 12.646 33.541 0 46.337l-13.244 13.396c-12.646 12.796-33.152 12.796-45.798 0l-27.703-28.032c-46.387 34.133-101.21 55.467-160.247 59.733v42.667h9.783c17.886 0 32.384 14.669 32.384 32.765v15.537c0 18.096-14.498 32.765-32.384 32.765h-95.479c-17.886 0-32.384-14.669-32.384-32.765v-15.537c0-18.096 14.498-32.765 32.384-32.765h9.788v-42.667c-185.55-21.333-328.93-174.933-328.93-362.667zM229.457 388.267c0 157.867 126.511 285.867 282.543 285.867s282.543-128 282.543-285.867c0-157.867-126.511-285.867-282.543-285.867s-282.543 128-282.543 285.867z" />
<glyph unicode="&#xe924;" glyph-name="coins" d="M387.555 625.778c166.911 0 302.224 55.715 302.224 124.444s-135.313 124.445-302.224 124.445c-166.912 0-302.222-55.716-302.222-124.445s135.31-124.444 302.222-124.444zM348.835 449.139c23.609 50.095 59.093 93.367 102.898 126.327-21.261-1.813-42.667-3.022-64.178-3.022-117.724 0-236.124 27.271-302.222 79.893v-79.893c0-63.325 114.915-115.45 263.502-123.305zM316.445 305.779c0 31.714 4.693 62.293 12.907 91.413-97.209 7.467-188.871 33.455-244.018 77.367v-79.893c0-58.88 99.378-108.053 232.747-120.994-0.995 10.56-1.635 21.261-1.635 32.107zM654.221 590.222c-156.834 0-284.443-127.609-284.443-284.443 0-156.838 127.609-284.446 284.443-284.446 156.838 0 284.446 127.607 284.446 284.446 0 156.834-127.607 284.443-284.446 284.443zM640.713 332.446h27.021c41.566 0 75.379-33.813 75.379-75.379 0-37.367-26.953-68.126-62.225-74.381v-27.985c0-14.72-11.947-26.667-26.667-26.667s-26.667 11.947-26.667 26.667v26.633h-35.554c-14.72 0-26.667 11.947-26.667 26.667s11.947 26.667 26.667 26.667h75.733c12.16 0 22.046 9.886 22.046 22.046 0 12.514-9.886 22.4-22.046 22.4h-27.021c-41.566 0-75.379 33.813-75.379 75.375 0 37.372 26.953 68.126 62.221 74.385v28.015c0 14.72 11.947 26.667 26.667 26.667s26.667-11.947 26.667-26.667v-26.667h35.558c14.72 0 26.667-11.947 26.667-26.667s-11.947-26.667-26.667-26.667h-75.733c-12.16 0-22.046-9.882-22.046-22.042 0-12.518 9.886-22.4 22.046-22.4z" />
<glyph unicode="&#xe925;" glyph-name="collapse" d="M85.333 192c0 80.452 0 120.678 24.994 145.673s65.22 24.994 145.673 24.994c80.453 0 120.68 0 145.673-24.994s24.994-65.22 24.994-145.673c0-80.452 0-120.678-24.994-145.673s-65.22-24.994-145.673-24.994c-80.453 0-120.68 0-145.673 24.994s-24.994 65.22-24.994 145.673zM147.817 812.183c62.484 62.484 163.050 62.484 364.183 62.484 201.131 0 301.7 0 364.181-62.484 62.485-62.484 62.485-163.050 62.485-364.183 0-201.131 0-301.7-62.485-364.181-62.481-62.485-163.051-62.485-364.181-62.485-16.879 0-33.045 0-48.546 0.038 14.217 21.679 20.437 45.564 23.518 68.467 3.703 27.546 3.699 61.406 3.695 98.342v7.637c0.004 36.932 0.009 70.797-3.695 98.342-4.079 30.336-13.675 62.396-40.043 88.768-26.371 26.368-58.432 35.964-88.767 40.043-27.546 3.703-61.41 3.699-98.343 3.695h-7.637c-36.934 0.004-70.797 0.009-98.343-3.695-22.903-3.081-46.79-9.306-68.468-23.518-0.037 15.497-0.037 31.667-0.037 48.546 0 201.133 0 301.699 62.484 364.183zM672 416c17.673 0 32 14.327 32 32s-14.327 32-32 32h-82.743l158.703 158.706c12.497 12.497 12.497 32.758 0 45.255s-32.755 12.497-45.252 0l-158.707-158.704v82.743c0 17.673-14.327 32-32 32s-32-14.327-32-32v-160c0-17.673 14.327-32 32-32h160z" />
<glyph unicode="&#xe926;" glyph-name="copy" d="M853.333 763.429v-466.285c0-9.007-1.839-17.924-5.414-26.24-3.571-8.32-8.811-15.881-15.415-22.246-6.601-6.37-14.443-11.422-23.070-14.865-8.627-3.447-17.873-5.222-27.213-5.222h-42.667v370.287c-0.073 32.713-13.585 64.066-37.572 87.197s-56.503 36.159-90.428 36.231h-270.221v41.143c0 18.186 7.492 35.628 20.828 48.487s31.423 20.084 50.283 20.084h369.776c18.863 0 36.949-7.224 50.283-20.084 13.338-12.86 20.83-30.301 20.83-48.487zM611.554 667.429h-369.776c-18.86 0-36.947-7.225-50.283-20.084s-20.828-30.301-20.828-48.488v-466.287c0-18.185 7.492-35.627 20.828-48.486s31.423-20.083 50.283-20.083h369.776c18.863 0 36.949 7.223 50.283 20.083 13.338 12.86 20.83 30.302 20.83 48.486v466.287c0 18.187-7.492 35.628-20.83 48.488-13.333 12.859-31.42 20.084-50.283 20.084z" />
<glyph unicode="&#xe927;" glyph-name="crypto" d="M566.579 564.221c-8.742 8.742-20.847 14.121-34.295 14.121h-72.845v-97.28h72.845c42.769 0 65.161 51.507 34.295 83.159zM459.439 433.993v-114.991h86.071c51.554 0 76.838 62.694 40.572 98.176-22.417 22.417-42.231 16.815-126.643 16.815zM938.667 447.889c0 235.803-190.976 426.778-426.556 426.778s-426.778-190.974-426.778-426.778c0-235.58 191.199-426.556 426.778-426.556s426.556 190.976 426.556 426.556zM673.946 296.589c-19.051-19.277-45.726-31.159-75.089-31.159h-57.382v-71.053h-48.862v71.053h-35.191v-71.053h-48.865v71.053h-89.659v48.64h54.468v267.635h-54.468v48.864h89.659v71.055h48.865v-71.055h35.191v71.055h48.862v-71.055h56.486c42.142 0 76.211-34.071 76.211-76.21 0-21.072-8.516-40.123-22.191-54.019-13.675-13.449-32.503-21.969-53.124-22.191 58.726 0 106.249-47.744 106.249-106.47 0-29.363-11.883-56.038-31.159-75.089z" />
<glyph unicode="&#xe928;" glyph-name="currency-circle-dollar" d="M512 874.667c-235.65 0-426.667-191.017-426.667-426.667 0-235.648 191.017-426.667 426.667-426.667 235.635 0 426.667 191.019 426.667 426.667 0 235.65-191.019 426.667-426.667 426.667zM486.268 514.466c2.53-5.7 6.967-10.901 13.265-15.633 6.302-4.732 14.985-9.549 26.018-14.451 26.965-11.733 49.297-23.215 66.999-34.415 17.681-11.217 30.865-24.051 39.548-38.498 8.67-14.451 13.001-32.452 13.001-54.003 0-30.298-9.634-54.733-28.898-73.297-19.268-18.569-45.099-29.517-77.517-32.853v-32.183c0-11.678-9.468-21.15-21.15-21.15s-21.15 9.472-21.15 21.15v31.667c-22.95 2.283-43.452 8.316-61.483 18.133-18.051 9.801-32.185 23.684-42.435 41.651-10.25 17.95-15.2 40.252-14.85 66.867l0.533 1.314h90.117c0-14.182 2.099-25.715 6.302-34.547 4.198-8.849 9.98-15.334 17.331-19.452s15.851-6.165 25.485-6.165c7.881 0 14.447 1.617 19.699 4.868 5.248 3.23 9.199 7.748 11.814 13.53 2.637 5.786 3.934 12.433 3.934 19.968 0 8.934-1.365 16.465-4.066 22.601-2.718 6.131-7.181 11.601-13.397 16.418s-14.767 9.583-25.617 14.315c-27.337 10.85-49.783 21.717-67.401 32.585-17.601 10.85-30.618 23.548-39.018 38.097-8.4 14.537-12.617 32.751-12.617 54.652 0 29.766 10.067 54.25 30.217 73.433 20.134 19.183 47.035 30.35 80.665 33.5v34.417c0 11.607 9.412 21.017 21.018 21.017 11.61 0 21.018-9.41 21.018-21.017v-35.733c31.535-4.733 56.533-17.7 75.017-38.883 18.483-21.2 27.452-48.267 26.935-81.185l0.781-2.099h-91.166c0 18.734-3.55 32.617-10.633 41.651-7.1 9.017-16.333 13.533-27.716 13.533s-20.403-3.683-26.018-11.033c-5.598-7.35-8.401-16.9-8.401-28.633 0-7.718 1.267-14.417 3.819-20.1l0.017-0.034z" />
<glyph unicode="&#xe929;" glyph-name="default" d="M512 96c-194.404 0-352 157.598-352 352 0 194.404 157.596 352 352 352 194.402 0 352-157.596 352-352 0-194.402-157.598-352-352-352zM512 32c229.751 0 416 186.249 416 416s-186.249 416-416 416c-229.751 0-416-186.249-416-416s186.249-416 416-416z" />
<glyph unicode="&#xe92a;" glyph-name="digital-wallet" d="M694.857 362.667c0-75.61 61.534-137.143 137.143-137.143h106.667v-121.903c0-33.677-27.277-60.954-60.954-60.954h-304.759v219.763c26.88 11.763 45.713 38.524 45.713 69.76 0 42.086-34.103 76.19-76.19 76.19s-76.19-34.103-76.19-76.19c0-31.236 18.833-57.997 45.713-69.76v-219.763h-91.429v152.38c0 10.517-5.425 20.267-14.324 25.843l-62.964 39.347c7.040 48.397-30.598 87.194-75.093 87.194-42.087 0-76.19-34.103-76.19-76.194 0-61.743 69.303-97.067 119.223-62.839l48.396-30.263v-135.467h-213.333c-33.676 0-60.952 27.277-60.952 60.954v643.046c0 58.91 47.756 106.667 106.667 106.667h586.667c21.030 0 38.097-17.067 38.097-38.095s-17.067-38.095-38.097-38.095h-579.048c-20.968 0-38.095-17.128-38.095-38.095s17.128-38.095 38.095-38.095h678.094c33.677 0 60.954-27.276 60.954-60.952v-140.19h-106.667c-75.61 0-137.143-61.534-137.143-137.143zM832 438.857h106.667v-152.38h-106.667c-41.997 0-76.19 34.163-76.19 76.19s34.193 76.19 76.19 76.19z" />
<glyph unicode="&#xe92b;" glyph-name="event" d="M204.151 478.763h41.827v-168.93c-24.327-8.256-43.35-28.151-50.477-53.056h151.148c-7.127 24.905-26.15 44.8-50.477 53.056v108.826c53.839-54.234 137.487-87.889 209.137-87.889 71.667 0 155.311 33.668 209.139 87.889v-108.826c-24.329-8.256-43.349-28.151-50.479-53.056h151.147c-7.125 24.905-26.15 44.8-50.475 53.056v168.93h41.826c13.854 0 25.097 11.302 25.097 25.225 0 13.926-11.243 25.229-25.097 25.229h-10.991c48.725 49.557 13.931 134.536-55.932 134.536-69.867 0-104.657-84.981-55.932-134.536h-10.995c-13.85 0-25.097-11.302-25.097-25.229 0-13.922 11.247-25.225 25.097-25.225h26.722c-14.942-21.999-37.295-42.398-65.451-59.349-80.721-48.597-169.916-52.527-257.158 0-28.158 16.951-50.511 37.35-65.452 59.349h26.72c13.853 0 25.097 11.302 25.097 25.225 0 13.926-11.243 25.229-25.097 25.229h-10.992c48.726 49.557 13.93 134.536-55.932 134.536-69.868 0-104.655-84.981-55.932-134.536h-10.992c-13.853 0-25.097-11.302-25.097-25.229 0-13.922 11.243-25.225 25.097-25.225zM932.203 63.428c-130.931 146.223-108.058 121.182-129.079 142.878-0.137 0.017-598.972 0.017-598.972 0.017-16.451-23.010 3.246 2.415-113.286-144.004-13.124-16.491-1.42-40.986 19.592-40.986h803.091c21.679 0 33.148 25.903 18.654 42.095zM426.106 697.454l-11.612-68.11c-3.527-20.578 18.005-36.312 36.407-26.605l60.851 32.171c66.995-35.41 64.277-35.064 72.529-35.064 15.484 0 27.396 14.019 24.742 29.498l-11.627 68.11 49.242 48.232c14.865 14.579 6.66 39.998-13.905 43.035l-68.045 9.939-30.434 61.955c-9.139 18.697-35.776 18.775-45.005 0l-30.417-61.955-68.047-9.939c-20.553-3.036-28.783-28.447-13.903-43.035l49.223-48.232z" />
<glyph unicode="&#xe92c;" glyph-name="eye" d="M321.675 448.009c0 100.873 85.325 182.955 190.338 182.955 104.905 0 190.229-82.080 190.229-182.955 0-100.894-85.325-182.938-190.229-182.938-105.015 0-190.338 82.044-190.338 182.938zM90.256 465.463c-6.563-11.413-6.563-23.492 0-34.918 85.213-147.14 246.808-259.878 421.757-259.878 174.835 0 336.435 112.738 421.645 259.878 6.677 11.426 6.677 23.505 0 34.918-85.21 147.142-246.805 259.87-421.645 259.87-174.949 0-336.544-112.728-421.757-259.87zM512.013 571.005c-70.613 0-127.987-55.17-127.987-122.997 0-67.823 57.373-122.991 127.987-122.991 70.502 0 127.876 55.168 127.876 122.991 0 67.827-57.374 122.997-127.876 122.997z" />
<glyph unicode="&#xe92d;" glyph-name="eye-slash" d="M505.506 573.215l122.15-113.179 0.585 5.926c0 59.465-52.16 107.791-116.339 107.791l-6.396-0.539zM511.902 645.613c107.029 0 193.894-80.483 193.894-179.65 0-23.177-5.039-45.269-13.764-65.57l113.429-105.097c58.556 45.274 104.704 103.838 133.205 170.667-67.281 157.732-232.674 269.474-426.761 269.474-54.293 0-106.255-8.982-154.535-25.15l83.764-77.428c21.905 7.904 45.756 12.754 70.767 12.754zM124.112 743.523l106.061-98.269c-63.985-46.349-114.592-107.97-144.84-179.291 67.088-157.73 232.674-269.47 426.569-269.47 60.109 0 117.5 10.778 170.048 30.357l129.523-120.183 49.442 45.632-687.36 637.035-49.443-45.811zM338.561 545.010l59.913-55.512c-1.745-7.727-2.909-15.45-2.909-23.535 0-59.465 52.157-107.789 116.336-107.789 8.725 0 17.062 1.079 25.207 2.697l59.913-55.514c-25.788-11.857-54.481-19.042-85.12-19.042-107.029 0-193.895 80.482-193.895 179.648 0 28.386 7.757 54.976 20.554 79.047z" />
<glyph unicode="&#xe92e;" glyph-name="facebook" d="M832 874.667h-640c-58.827 0-106.667-47.84-106.667-106.667v-640c0-58.825 47.84-106.667 106.667-106.667h320v293.333h-106.667v133.333h106.667v106.667c0 88.373 71.629 160 160 160h106.667v-133.333h-53.333c-29.44 0-53.333 2.773-53.333-26.667v-106.667h133.333l-53.333-133.333h-80v-293.333h160c58.825 0 106.667 47.842 106.667 106.667v640c0 58.827-47.842 106.667-106.667 106.667z" />
<glyph unicode="&#xe92f;" glyph-name="filter" d="M416 421.342v-374.993c0-20.109 21.53-31.765 37.312-20.8l144 99.998c6.682 4.638 10.688 12.45 10.688 20.8v274.995h-192zM872 874.667h-720c-13.266 0-24-11.182-24-25v-74.998h768v74.998c0 13.818-10.735 25-24 25zM142.063 724.669l239.999-253.326h259.876l240 253.326h-739.875z" />
<glyph unicode="&#xe930;" glyph-name="fire" d="M772.429 550.79c-2.56 2.883-5.658 2.317-7.283 1.728-1.361-0.497-4.48-2.083-4.049-6.060 0.521-4.775 0.811-9.644 0.866-14.473 0.23-20.028-8.695-39.65-24.495-53.837-15.697-14.093-36.343-21.687-58.325-21.466-30.029 0.346-54.938 14.438-72.030 40.759-14.131 21.764-7.919 49.838-1.344 79.559 3.849 17.397 7.829 35.387 7.829 52.508 0 133.315-99.588 210.228-158.955 244.209-1.229 0.702-2.394 0.948-3.43 0.948-1.685 0-3.017-0.653-3.674-1.053-1.276-0.777-3.315-2.546-2.658-5.68 22.69-108.436-44.989-173.654-116.644-242.701-73.858-71.171-157.571-151.837-157.571-297.327 0-169.045 152.822-306.573 340.668-306.573 154.667 0 291.029 97.041 331.61 235.981 27.674 94.741-1.323 215.42-70.515 293.475zM519.834 86.771c-47.040-1.929-91.772 13.252-125.939 42.65-33.801 29.090-53.188 69.679-53.188 111.369 0 78.238 33.24 135.667 122.644 211.917 1.463 1.246 2.961 1.643 4.267 1.643 1.182 0 2.21-0.324 2.914-0.631 1.489-0.644 3.934-2.24 3.601-5.696-3.196-33.472-3.14-61.257 0.166-82.586 8.444-54.473 52.757-91.076 110.272-91.076 28.198 0 55.057 9.553 75.631 26.893 2.385 2.014 5.052 1.758 6.076 1.562 1.353-0.265 3.166-1.011 4.117-3.072 8.529-18.534 12.89-38.208 12.958-58.475 0.269-81.54-73.084-150.848-163.52-154.496z" />
<glyph unicode="&#xe931;" glyph-name="game-center" d="M459.273 802.807c-8.145 21.108-22.477 39.264-41.118 52.087s-40.721 19.715-63.347 19.773h-157.193c-29.768-0.036-58.306-11.877-79.355-32.925s-32.89-49.588-32.925-79.355v-157.193c0.036-29.768 11.877-58.306 32.925-79.356 21.049-21.047 49.588-32.887 79.355-32.926h157.193c29.768 0.038 58.306 11.878 79.356 32.926 21.047 21.050 32.887 49.588 32.926 79.356v157.193c-0.149 10.527-1.805 20.978-4.919 31.034-0.623 3.225-1.591 6.372-2.897 9.387zM354.807 582.737h-112.281v134.737c0 5.956 2.366 11.668 6.577 15.879s9.923 6.577 15.879 6.577h112.281v-134.737c0-5.956-2.366-11.668-6.577-15.879s-9.923-6.577-15.879-6.577zM933.747 793.42c-0.623 3.21-1.596 6.342-2.897 9.342-8.137 21.117-22.464 39.282-41.109 52.113-18.641 12.831-40.725 19.729-63.356 19.791h-157.193c-29.769-0.036-58.304-11.877-79.356-32.925-21.047-21.049-32.887-49.588-32.926-79.355v-157.193c0.038-29.768 11.878-58.306 32.926-79.356 21.052-21.047 49.587-32.887 79.356-32.926h157.193c29.769 0.038 58.308 11.878 79.356 32.926 21.047 21.050 32.892 49.588 32.926 79.356v157.193c-0.145 10.527-1.801 20.978-4.919 31.034zM826.385 582.737h-112.282v134.737c0 5.956 2.368 11.668 6.579 15.879s9.924 6.577 15.881 6.577h112.277v-134.737c0-5.956-2.364-11.668-6.575-15.879s-9.924-6.577-15.881-6.577zM459.273 331.23c-8.145 21.107-22.477 39.262-41.118 52.083-18.641 12.826-40.721 19.716-63.347 19.776h-157.193c-29.768-0.038-58.306-11.878-79.355-32.926-21.049-21.052-32.89-49.587-32.925-79.356v-157.193c0.036-29.769 11.877-58.308 32.925-79.356s49.588-32.892 79.355-32.926h157.193c29.768 0.034 58.306 11.878 79.356 32.926 21.047 21.047 32.887 49.587 32.926 79.356v157.193c-0.149 10.526-1.805 20.979-4.919 31.036-0.623 3.221-1.591 6.37-2.897 9.387zM354.807 111.159h-112.281v134.737c0 5.952 2.366 11.665 6.577 15.876s9.923 6.579 15.879 6.579h112.281v-134.737c0-5.956-2.366-11.669-6.577-15.881s-9.923-6.575-15.879-6.575zM930.85 331.23c-8.145 21.107-22.477 39.262-41.118 52.083-18.641 12.826-40.721 19.716-63.347 19.776h-157.193c-29.769-0.038-58.304-11.878-79.356-32.926-21.047-21.052-32.887-49.587-32.926-79.356v-157.193c0.038-29.769 11.878-58.308 32.926-79.356 21.052-21.047 49.587-32.892 79.356-32.926h157.193c29.769 0.034 58.308 11.878 79.356 32.926s32.892 49.587 32.926 79.356v157.193c-0.145 10.526-1.801 20.979-4.919 31.036-0.619 3.221-1.591 6.37-2.897 9.387zM826.385 111.159h-112.282v134.737c0 5.952 2.368 11.665 6.579 15.876s9.924 6.579 15.881 6.579h112.277v-134.737c0-5.956-2.364-11.669-6.575-15.881s-9.924-6.575-15.881-6.575z" />
<glyph unicode="&#xe932;" glyph-name="hand-deposit" d="M119.395 738.799c-8.969-0.013-17.571-3.796-23.946-10.531s-10.009-15.879-10.115-25.453v-509.812c0-30.793 5.693-61.798 23.67-87.424 17.974-25.626 49.109-41.579 84.068-41.579h615.031c69.914 0 130.564 55.94 130.564 129.003v324.531c0 73.061-60.651 129.004-130.564 129.004h-592.205c-36.686 0-62.44 26.95-62.44 56.277-0.106 9.574-3.74 18.718-10.115 25.453s-14.979 10.518-23.948 10.531zM512.068 552.474c24.265 0.001 48.294-5.101 70.716-15.015 22.417-9.916 42.79-24.444 59.951-42.765 17.156-18.317 30.771-40.068 40.055-64 9.289-23.936 14.067-49.591 14.063-75.499 0.004-25.907-4.774-51.558-14.063-75.494-9.284-23.936-22.899-45.683-40.055-64-17.161-18.321-37.534-32.853-59.951-42.765-22.421-9.916-46.451-15.014-70.716-15.014-24.269 0-48.299 5.099-70.72 15.014-22.418 9.911-42.79 24.444-59.949 42.765-17.159 18.317-30.771 40.064-40.057 64s-14.065 49.591-14.065 75.494c-0.001 25.907 4.778 51.563 14.065 75.499 9.286 23.932 22.898 45.683 40.057 64 17.159 18.321 37.531 32.849 59.949 42.765 22.421 9.914 46.451 15.016 70.72 15.015zM215.916 832c-69.866 0-130.583-56.13-130.583-129.185s60.717-129.029 130.583-129.029c9.034 0.009 17.696 3.845 24.084 10.665s9.981 16.067 9.99 25.711c-0.009 9.644-3.601 18.891-9.99 25.711s-15.069 10.655-24.102 10.665c-36.686 0-62.44 26.95-62.44 56.277s25.774 56.255 62.459 56.255h515.796c23.748 0 42.3-19.806 42.3-45.156v-103.751c0.009-9.645 3.601-18.892 9.988-25.711s15.049-10.655 24.085-10.665c9.033 0.009 17.694 3.845 24.081 10.665s9.984 16.067 9.993 25.711v103.751c0 64.707-49.835 118.087-110.447 118.087h-515.796zM534.182 463.885l79.582-85.111c13.146-14.059 11.285-35.247 0-47.164-13.333-14.076-32.896-11.789-44.186 0l-26.159 27.925-0.004-89.237c0-19.324-14.396-33.51-31.394-33.51-18.236 0-31.266 16.367-31.266 33.519v89.276l-24.785-26.505c-14.635-17.579-39.153-12.817-48.869 2.509-7.107 11.213-9.856 29.282 3.179 43.196l80.693 85.995c2.146 2.291 9.903 8.781 21.052 8.781 11.332 0 18.581-5.85 22.157-9.673z" />
<glyph unicode="&#xe933;" glyph-name="handshake" d="M622.118 580.788l-36.766-38.922c-31.501-33.348-74.227-52.083-118.78-52.083-44.872 0-87.061 18.5-118.789 52.087l-9.498 10.058c-10.921 11.565-10.921 30.313 0.003 41.876l126.462 133.869c-38.832 25.645-88.558 26.525-128.897 0.091-23.379-15.323-53.37-11.431-72.931 9.464l-40.755 43.536c-10.661 11.39-28.039 11.431-38.749 0.093l-132.745-140.519c-10.678-11.303-10.676-29.626 0.002-40.929l449.881-476.192c19.972-17.66 45.286-21.449 67.874-10.103 17.967 9.015 36.928 29.995 36.343 61.854-0.090 4.668 0.772 9.353 2.697 13.551 5.252 11.46 16.316 17.724 27.55 16.755 17.335-1.506 34.893 5.534 48.192 19.298 12.979 13.436 19.84 31.514 18.825 49.604-0.909 16.201 11.23 30.182 26.517 31.339 22.101 1.668 40.124 12.787 53.577 33.045 9.954 14.997 16.567 34.236 18.534 53.222l-178.547 189.006zM973.325 637.171l-132.928 140.719c-10.675 11.301-27.985 11.301-38.66 0l-47.842-50.646c-20.685-21.897-52.715-24.619-76.16-6.468-46.268 35.821-111.659 30.487-152.107-12.406l-127.348-134.81c19.49-15.926 43.261-24.553 68.289-24.553 29.931 0 58.065 12.337 79.228 34.74l56.546 59.858c5.461 5.781 12.621 8.673 19.78 8.673s14.319-2.892 19.78-8.673l187.511-198.503 143.915 151.141c10.671 11.303 10.671 29.626-0.004 40.927z" />
<glyph unicode="&#xe934;" glyph-name="hand-withdraw" d="M119.395 738.799c-8.969-0.013-17.571-3.796-23.946-10.531s-10.009-15.879-10.115-25.453v-509.812c0-30.793 5.693-61.798 23.67-87.424 17.974-25.626 49.109-41.579 84.068-41.579h615.031c69.914 0 130.564 55.94 130.564 129.003v324.531c0 73.061-60.651 129.004-130.564 129.004h-592.205c-36.686 0-62.44 26.95-62.44 56.277-0.106 9.574-3.74 18.718-10.115 25.453s-14.979 10.518-23.948 10.531zM512.068 552.474c24.265 0.001 48.294-5.101 70.716-15.015 22.417-9.916 42.79-24.444 59.951-42.765 17.156-18.317 30.771-40.068 40.055-64 9.289-23.936 14.067-49.591 14.063-75.499 0.004-25.907-4.774-51.558-14.063-75.494-9.284-23.936-22.899-45.683-40.055-64-17.161-18.321-37.534-32.853-59.951-42.765-22.421-9.916-46.451-15.014-70.716-15.014-24.269 0-48.299 5.099-70.72 15.014-22.418 9.911-42.79 24.444-59.949 42.765-17.159 18.317-30.771 40.064-40.057 64s-14.065 49.591-14.065 75.494c-0.001 25.907 4.778 51.563 14.065 75.499 9.286 23.932 22.898 45.683 40.057 64 17.159 18.321 37.531 32.849 59.949 42.765 22.421 9.914 46.451 15.016 70.72 15.015zM215.916 832c-69.866 0-130.583-56.13-130.583-129.185s60.717-129.029 130.583-129.029c9.034 0.009 17.696 3.845 24.084 10.665s9.981 16.067 9.99 25.711c-0.009 9.644-3.601 18.891-9.99 25.711s-15.069 10.655-24.102 10.665c-36.686 0-62.44 26.95-62.44 56.277s25.774 56.255 62.459 56.255h515.796c23.748 0 42.3-19.806 42.3-45.156v-103.751c0.009-9.645 3.601-18.892 9.988-25.711s15.049-10.655 24.085-10.665c9.033 0.009 17.694 3.845 24.081 10.665s9.984 16.067 9.993 25.711v103.751c0 64.707-49.835 118.087-110.447 118.087h-515.796zM489.894 246.46l-79.581 85.111c-13.146 14.063-11.287 35.251-0.001 47.164 13.333 14.080 32.897 11.793 44.186 0l26.159-27.925v89.237c0 19.328 14.4 33.51 31.398 33.51 18.236 0 31.262-16.363 31.262-33.519v-89.276l24.789 26.509c14.635 17.579 39.151 12.817 48.866-2.513 7.108-11.213 9.856-29.282-3.179-43.196l-80.691-85.99c-2.146-2.295-9.907-8.785-21.052-8.785-11.332 0-18.581 5.85-22.157 9.673z" />
<glyph unicode="&#xe935;" glyph-name="hd-nap" d="M176.762 21.333h335.298c-50.377 37.85-88.654 90.94-107.977 152.38h-166.369c-16.823 0-30.476 13.653-30.476 30.477s13.653 30.477 30.476 30.477h153.873c-0.975 10.027-1.492 20.207-1.492 30.477 0 20.877 2.102 41.263 6.094 60.954h-158.475c-16.823 0-30.476 13.653-30.476 30.473 0 16.823 13.653 30.477 30.476 30.477h177.768c14.965 34.197 36.025 65.131 61.804 91.43h-239.572c-16.823 0-30.476 13.653-30.476 30.477s13.653 30.475 30.476 30.475h304.762c4.783 0 9.297-1.097 13.316-3.078 41.724 21.455 88.994 33.554 139.063 33.554 43.337 0 84.574-9.051 121.907-25.387v238.72c0 50.499-40.93 91.429-91.43 91.429h-365.714v-182.857c0-24.259-9.632-47.513-26.79-64.64-17.128-17.158-40.379-26.788-64.639-26.788h-182.857v-487.617c0-24.26 9.632-47.514 26.79-64.64 17.128-17.161 40.379-26.79 64.639-26.79zM112.123 700.739c-11.064-11.063-18.988-24.655-23.226-39.406h179.293c8.077 0 15.849 3.2 21.548 8.93 5.729 5.699 8.928 13.47 8.928 21.547v179.291c-14.751-4.236-28.344-12.16-39.405-23.223l-147.139-147.139zM938.667 265.143c0 134.554-109.257 243.81-243.81 243.81s-243.81-109.257-243.81-243.81c0-134.554 109.257-243.81 243.81-243.81s243.81 109.257 243.81 243.81zM675.81 284.19v133.333h38.093v-133.333h133.333v-38.093h-133.333v-133.333h-38.093v133.333h-133.333v38.093h133.333z" />
<glyph unicode="&#xe936;" glyph-name="hd-rut" d="M176.762 21.333h335.298c-50.377 37.85-88.654 90.94-107.977 152.38h-166.369c-16.823 0-30.476 13.653-30.476 30.477s13.653 30.477 30.476 30.477h153.873c-0.975 10.027-1.492 20.207-1.492 30.477 0 20.877 2.102 41.263 6.094 60.954h-158.475c-16.823 0-30.476 13.653-30.476 30.473 0 16.823 13.653 30.477 30.476 30.477h177.768c14.965 34.197 36.025 65.131 61.804 91.43h-239.572c-16.823 0-30.476 13.653-30.476 30.477s13.653 30.475 30.476 30.475h304.762c4.783 0 9.297-1.097 13.316-3.078 41.724 21.455 88.994 33.554 139.063 33.554 43.337 0 84.574-9.051 121.907-25.387v238.72c0 50.499-40.93 91.429-91.43 91.429h-365.714v-182.857c0-24.259-9.632-47.513-26.79-64.64-17.128-17.158-40.379-26.788-64.639-26.788h-182.857v-487.617c0-24.26 9.632-47.514 26.79-64.64 17.128-17.161 40.379-26.79 64.639-26.79zM112.123 700.739c-11.064-11.063-18.988-24.655-23.226-39.406h179.293c8.076 0 15.848 3.2 21.548 8.929 5.729 5.699 8.928 13.471 8.928 21.547v179.291c-14.751-4.236-28.344-12.16-39.405-23.223l-147.139-147.139zM694.857 508.954c134.554 0 243.81-109.257 243.81-243.81s-109.257-243.81-243.81-243.81c-134.554 0-243.81 109.257-243.81 243.81s109.257 243.81 243.81 243.81zM847.236 249.903v45.717h-304.759v-45.717h304.759z" />
<glyph unicode="&#xe937;" glyph-name="history" d="M868.57 732.447c-1.459 0-2.923-0.716-4.386-1.068-1.826 0.352-3.294 1.068-4.753 1.068h-36.574v106.667c0 19.551-16.457 35.553-36.57 35.553h-548.573c-54.127 0-99.107-38.398-107.886-88.887-1.098-2.845-1.828-5.69-1.828-8.893v-657.774c0-54.050 44.98-97.779 100.574-97.779h639.996c14.993 0 27.43 12.092 27.43 26.667v657.78c0 14.577-12.437 26.667-27.43 26.667zM512 145.779c-130.929 0-237.716 103.821-237.716 231.108 0 127.292 106.788 231.113 237.716 231.113s237.717-103.821 237.717-231.113c0-127.287-106.79-231.108-237.717-231.108zM749.717 732.447h-512.003c-20.116 0-36.569 15.996-36.569 35.553s16.453 35.553 36.569 35.553h512.003v-71.107zM566.857 288c-9.361 0-18.722 3.482-25.856 10.415l-54.857 53.333c-6.878 6.647-10.714 15.684-10.714 25.139v106.667c0 19.661 16.38 35.558 36.57 35.558s36.57-15.898 36.57-35.558v-91.947l44.143-42.918c14.302-13.901 14.302-36.365 0-50.274-7.134-6.933-16.495-10.415-25.856-10.415z" />
<glyph unicode="&#xe938;" glyph-name="home" d="M927.953 474.065l-385.621 371.663c-8.098 7.805-18.871 12.106-30.327 12.106-11.46 0-22.234-4.297-30.327-12.106l-385.626-371.663c-12.916-12.446-11.407-23.147-9.361-28.228 2.050-5.073 8.165-13.914 26.1-13.914h43.421v-330.325c0-34.381 29.632-63.424 63.185-63.424h195.455v223.898h189.153v-223.898h200.602c33.664 0 61.901 29.636 61.901 63.424v330.325h44.706c17.933 0 24.047 8.841 26.099 13.914 2.048 5.082 3.558 15.778-9.357 28.228z" />
<glyph unicode="&#xe939;" glyph-name="hourglass" d="M791.275 103.159v85.146c0 100.288-82.283 160.265-161.361 218.782-10.923 8.064-24.823 23.381-24.823 46.758s12.523 46.174 24.823 55.923c76.941 60.972 161.361 118.496 161.361 218.78v64.292h62.059v81.827h-682.667v-81.827h62.060v-64.294c0-100.285 84.415-157.808 161.359-218.778 12.301-9.754 24.825-32.546 24.825-55.923 0-23.381-13.903-38.694-24.825-46.758-79.077-58.522-161.359-118.498-161.359-218.782v-85.146h-62.060v-81.826h682.667v81.826h-62.059zM355.272 652.567c-22.877 24.385-35.659 47.857-35.659 75.982v64.292h384.775v-64.294c0-28.123-12.787-51.598-35.661-75.982l-313.455 0.002zM704.388 125.965l-146.129 53.713c-25.442 9.353-67.063 9.353-92.506 0l-146.141-53.717v62.34c0 56.742 47.886 95.061 126.032 152.875l2.074 1.532c29.662 21.905 48.905 52.416 55.433 86.033 5.845-1.225 11.853-1.225 17.698 0 6.507-33.609 25.766-64.115 55.394-85.999l2.108-1.566c78.148-57.813 126.033-96.119 126.033-152.87l0.004-62.34z" />
<glyph unicode="&#xe93a;" glyph-name="img-icon" d="M85.333 874.667h853.333v-853.333h-853.333v853.333z" />
<glyph unicode="&#xe93b;" glyph-name="info" d="M862.545 762.453c-60.983 69.547-191.906 112.213-350.545 112.213-158.641 0-289.562-42.667-350.545-112.213-101.496-117.76-101.496-512 0-628.907 60.983-69.547 191.904-112.213 350.545-112.213 158.639 0 289.562 42.667 350.545 112.213 101.495 117.76 101.495 511.147 0 628.907zM512 672c10.543 0 20.851-3.128 29.615-8.988 8.768-5.86 15.599-14.19 19.635-23.936 4.032-9.745 5.090-20.469 3.034-30.814s-7.134-19.849-14.592-27.308c-7.454-7.459-16.951-12.538-27.294-14.596-10.338-2.058-21.056-1.002-30.797 3.035s-18.065 10.873-23.923 19.643c-5.858 8.771-8.986 19.082-8.986 29.63 0 14.145 5.619 27.71 15.616 37.712s23.552 15.621 37.692 15.621zM554.645 213.333h-85.291c-11.311 0-22.157 4.497-30.157 12.497-7.996 8-12.489 18.854-12.489 30.17s4.493 22.17 12.489 30.17c8 8 18.846 12.497 30.157 12.497v128c-11.311 0-22.157 4.497-30.157 12.497-7.996 8-12.489 18.854-12.489 30.17s4.493 22.17 12.489 30.17c8 8 18.846 12.497 30.157 12.497h42.645c11.311 0 22.157-4.497 30.157-12.497 7.996-8 12.489-18.854 12.489-30.17v-170.667c11.311 0 22.157-4.497 30.157-12.497 7.996-8 12.489-18.854 12.489-30.17s-4.493-22.17-12.489-30.17c-8-8-18.846-12.497-30.157-12.497z" />
<glyph unicode="&#xe93c;" glyph-name="info-1" d="M761.613 874.667h-361.968c-30.225 0-58.663-11.734-80-33.066l-137.239-137.246c-21.337-21.332-33.073-49.42-33.073-79.644v-490.31c0-62.221 50.851-113.067 113.072-113.067h499.207c62.221 0 113.054 50.846 113.054 113.067v627.554c0 62.222-50.833 112.713-113.054 112.713zM482.854 734.734c14.814 15.375 40.478 11.976 50.103 0 14.383-14.343 13.129-37.718 0-50.139-14.285-14.287-35.972-14.164-50.103 0-13.12 12.416-14.383 35.791 0 50.139zM472.371 582.939c0 19.635 15.902 35.555 35.554 35.555s35.554-15.92 35.554-35.555v-97.12c0-19.635-15.902-35.554-35.554-35.554s-35.554 15.919-35.554 35.554v97.12zM657.647 163.669h-299.443c-19.653 0-35.555 15.919-35.555 35.554s15.903 35.554 35.555 35.554h299.443c19.652 0 35.554-15.919 35.554-35.554s-15.902-35.554-35.554-35.554zM657.647 305.822h-299.443c-19.653 0-35.555 15.919-35.555 35.554s15.903 35.558 35.555 35.558h299.443c19.652 0 35.554-15.923 35.554-35.558s-15.902-35.554-35.554-35.554z" />
<glyph unicode="&#xe93d;" glyph-name="introduce" d="M938.667 801.28c0-16.506-14.029-29.923-31.292-29.923h-790.75c-17.261 0-31.292 13.417-31.292 29.923v43.464c0 16.506 14.031 29.923 31.292 29.923h790.75c17.263 0 31.292-13.417 31.292-29.923v-43.464zM146.688 751.079v-395.043c0-40.469 34.424-73.387 76.745-73.387h278.007v-172.109c-20.983-4.617-36.71-22.558-36.71-43.964 0-24.96 21.21-45.244 47.313-45.244s47.313 20.284 47.313 45.244c0 21.436-15.727 39.347-36.706 43.964v172.109h278.003c42.321 0 76.745 32.917 76.745 73.387v395.043h-730.71zM515.891 431.292h-157.437c-11.518 0-20.883 8.926-20.883 19.938 0 11.017 9.365 19.972 20.883 19.972h157.437c11.52 0 20.851-8.956 20.851-19.972 0-11.012-9.331-19.938-20.851-19.938zM665.566 562.621h-307.111c-11.518 0-20.883 8.924-20.883 19.938s9.365 19.938 20.883 19.938h307.111c11.52 0 20.881-8.924 20.881-19.938s-9.361-19.938-20.881-19.938z" />
<glyph unicode="&#xe93e;" glyph-name="jackpot" d="M913.092 170.368h-30.097v78.093c19.273 16.367 31.569 41.084 31.569 68.698v310.090c0 27.612-12.297 52.308-31.569 68.695v85.228c0 51.553-40.9 93.495-91.17 93.495h-559.649c-50.271 0-91.171-41.943-91.171-93.495v-85.228c-19.274-16.366-31.57-41.082-31.57-68.695v-310.090c0-27.614 12.297-52.309 31.57-68.698v-78.093h-30.097c-14.118 0-25.575-11.75-25.575-26.227v-33.634c0-49.161 39.017-89.173 86.956-89.173h679.423c47.936 0 86.955 40.013 86.955 89.173v33.634c0 14.477-11.456 26.227-25.574 26.227zM647.62 520.576c-14.14 0-25.574 11.75-25.574 26.228s11.435 26.228 25.574 26.228h89.634c8.452 0 16.371-4.28 21.137-11.456s5.769-16.303 2.658-24.381l-60.642-157.908c-3.968-10.325-13.606-16.619-23.795-16.619-3.132 0-6.302 0.589-9.37 1.826-13.137 5.308-19.601 20.54-14.426 34.010l46.874 122.074h-52.070zM467.162 520.576c-14.118 0-25.574 11.75-25.574 26.228s11.456 26.228 25.574 26.228h89.655c8.452 0 16.371-4.28 21.137-11.456s5.747-16.303 2.658-24.381l-60.642-157.908c-3.972-10.325-13.606-16.619-23.795-16.619-3.132 0-6.302 0.589-9.37 1.826-13.158 5.308-19.601 20.54-14.426 34.010l46.874 122.074h-52.092zM286.723 520.576c-14.118 0-25.575 11.75-25.575 26.228s11.458 26.228 25.575 26.228h89.636c8.47 0 16.389-4.28 21.156-11.456 4.747-7.176 5.749-16.303 2.639-24.381l-60.624-157.908c-3.969-10.325-13.606-16.619-23.816-16.619-3.11 0-6.281 0.589-9.35 1.826-13.156 5.308-19.601 20.54-14.425 34.010l46.874 122.074h-52.092zM192.136 781.171c0 22.64 17.964 41.041 40.020 41.041h171.19v-10.512c0-26.836 21.279-48.657 47.449-48.657h122.394c26.167 0 47.445 21.821 47.445 48.657v10.512h171.191c22.076 0 40.017-18.422 40.017-41.041v-64.855c-1.408 0.063-2.82 0.105-4.233 0.105h-631.218c-1.412 0-2.844-0.042-4.235-0.105l-0.020 64.855zM192.136 228.087c1.411-0.060 2.823-0.102 4.235-0.102h631.217c1.412 0 2.846 0.043 4.237 0.102v-57.719h-639.689v57.719z" />
<glyph unicode="&#xe93f;" glyph-name="lock-key" d="M257.115 518.17c30.994 7.206 68.241 14.494 110.091 20.062v71.289c0 83.055 64.957 150.625 144.794 150.625 79.842 0 144.798-67.57 144.798-150.625v-71.289c41.847-5.568 79.095-12.855 110.089-20.062v91.351c0 146.202-114.342 265.146-254.886 265.146s-254.885-118.945-254.885-265.148v-91.349zM512 342.451c-16.55 0-30.016-14.007-30.016-31.223 0-17.22 13.466-31.228 30.016-31.228s30.016 14.007 30.016 31.228c0 17.216-13.466 31.223-30.016 31.223zM512 498.027c-151.054 0-276.887-35.618-320-49.434v-377.818c43.178-13.803 169.284-49.442 320-49.442 151.057 0 276.89 35.618 320 49.429v377.818c-43.179 13.803-169.28 49.446-320 49.446zM536.034 233.954v-82.044h-48.064v82.044c-31.33 10.573-54.050 41.207-54.050 77.274 0 44.787 35.029 81.22 78.080 81.22 43.055 0 78.080-36.433 78.080-81.22 0-36.066-22.72-66.701-54.046-77.274z" />
<glyph unicode="&#xe940;" glyph-name="logout" d="M433.634 157.867c-1.088 2.846-1.463 5.261-1.097 7.219 0.367 1.941-0.9 3.55-3.806 4.791s-4.358 2.223-4.358 2.927c0 0.708-2.083 1.246-6.26 1.596-4.175 0.358-6.258 0.542-6.258 0.542h-169.792c-23.945 0-44.446 8.346-61.5 25.071-17.050 16.708-25.575 36.796-25.575 60.258v375.472c0 23.467 8.523 43.55 25.575 60.262 17.054 16.713 37.555 25.073 61.5 25.073h174.147c4.718 0 8.427 1.147 11.154 3.463 2.718 2.311 4.527 5.78 5.44 10.401 0.905 4.622 1.455 8.795 1.634 12.529 0.179 3.73 0.094 8.445-0.273 14.134-0.358 5.686-0.542 9.241-0.542 10.67 0 4.622-1.724 8.614-5.167 11.998-3.45 3.37-7.529 5.061-12.244 5.061h-174.15c-43.171 0-80.089-15.023-110.749-45.067-30.653-30.044-45.982-66.218-45.982-108.529v-375.466c0-42.308 15.329-78.49 45.982-108.523 30.661-30.059 67.579-45.082 110.749-45.082h174.155c4.718 0 8.429 1.161 11.155 3.465 2.718 2.313 4.527 5.777 5.44 10.406 0.905 4.617 1.451 8.811 1.634 12.527 0.179 3.738 0.094 8.439-0.273 14.131-0.363 5.692-0.542 9.246-0.542 10.671zM928.324 472l-296.051 290.144c-6.886 6.747-15.053 10.132-24.486 10.132s-17.6-3.385-24.495-10.132c-6.895-6.757-10.342-14.765-10.342-24.004v-153.602h-243.806c-9.439 0-17.6-3.385-24.494-10.132-6.895-6.757-10.339-14.76-10.339-24.005v-204.806c0-9.242 3.444-17.246 10.339-23.996 6.902-6.746 15.060-10.142 24.494-10.142h243.811v-153.596c0-9.242 3.443-17.25 10.338-24 6.895-6.758 15.061-10.142 24.495-10.142s17.6 3.383 24.491 10.142l296.047 290.129c6.895 6.763 10.342 14.754 10.342 24 0 9.242-3.447 17.254-10.342 24.009z" />
<glyph unicode="&#xe941;" glyph-name="menu" d="M891.264 789.333h-758.526c-26.12 0-47.404-17.879-47.404-39.82v-56.893c0-21.941 21.285-39.82 47.404-39.82h758.526c26.116 0 47.403 17.879 47.403 39.82v56.893c0 21.941-21.286 39.82-47.403 39.82zM763.264 516.267h-502.526c-26.12 0-47.404-17.877-47.404-39.821v-56.892c0-21.943 21.285-39.821 47.404-39.821h502.526c26.116 0 47.403 17.877 47.403 39.821v56.892c0 21.943-21.286 39.821-47.403 39.821zM891.264 243.2h-758.526c-26.12 0-47.404-17.877-47.404-39.821v-56.892c0-21.943 21.285-39.821 47.404-39.821h758.526c26.116 0 47.403 17.877 47.403 39.821v56.892c0 21.943-21.286 39.821-47.403 39.821z" />
<glyph unicode="&#xe942;" glyph-name="mess" d="M512 874.667c-235.627 0-426.667-176.853-426.667-395.038 0-124.322 62.027-235.2 158.987-307.631v-150.665l145.28 79.735c38.773-10.722 79.84-16.533 122.4-16.533 235.627 0 426.667 176.853 426.667 395.038 0 218.187-191.040 395.093-426.667 395.093zM554.398 342.665l-108.638 115.895-212-115.895 233.227 247.575 111.309-115.893 209.331 115.893-233.229-247.575z" />
<glyph unicode="&#xe943;" glyph-name="minus-fill" d="M832 832h-640c-16.974 0-33.253-6.743-45.255-18.745s-18.745-28.281-18.745-45.255v-640c0-16.973 6.743-33.254 18.745-45.257s28.281-18.743 45.255-18.743h640c16.973 0 33.254 6.741 45.257 18.743s18.743 28.284 18.743 45.257v640c0 16.974-6.741 33.253-18.743 45.255s-28.284 18.745-45.257 18.745zM736 416h-448c-8.487 0-16.626 3.371-22.627 9.374-6.001 5.999-9.373 14.14-9.373 22.626s3.372 16.627 9.373 22.626c6.001 6.003 14.141 9.374 22.627 9.374h448c8.486 0 16.627-3.371 22.626-9.374 6.003-5.999 9.374-14.14 9.374-22.626s-3.371-16.627-9.374-22.626c-5.999-6.003-14.14-9.374-22.626-9.374z" />
<glyph unicode="&#xe944;" glyph-name="momo" d="M756.698 487.45c100.617 0 181.969 81.050 181.969 181.296s-81.353 181.296-181.969 181.296c-100.621 0-181.973-81.050-181.973-181.296s81.353-181.296 181.973-181.296zM756.698 745.956c42.816 0 77.495-34.553 77.495-77.211s-34.679-77.211-77.495-77.211c-42.816 0-77.5 34.553-77.5 77.211s34.684 77.211 77.5 77.211zM756.698 408.96c-100.621 0-181.973-81.050-181.973-181.299 0-100.245 81.353-181.295 181.973-181.295 100.617 0 181.969 81.050 181.969 181.295 0 100.25-81.353 181.299-181.969 181.299zM756.698 150.451c-42.816 0-77.5 34.551-77.5 77.21s34.684 77.214 77.5 77.214c42.816 0 77.495-34.556 77.495-77.214s-34.679-77.21-77.495-77.21zM385.905 408.96c-30.828 0-59.087-10.24-81.779-27.302-22.693 17.062-51.38 27.302-81.78 27.302-75.357 0-136.585-61.001-136.585-136.081v-226.94h104.472v228.22c0 17.062 13.702 30.716 30.828 30.716s30.828-13.653 30.828-30.716v-227.793h104.472v227.793c0 17.062 13.701 30.716 30.828 30.716s30.828-13.653 30.828-30.716v-227.793h104.043v226.94c0 74.654-60.8 135.654-136.156 135.654zM385.905 850.042c-30.828 0-59.087-10.238-81.78-27.301-22.693 17.063-51.38 27.301-81.779 27.301-75.785 0-137.013-61.001-137.013-136.079v-226.513h104.472v227.793c0 17.063 13.701 30.714 30.828 30.714s30.828-13.65 30.828-30.714v-227.793h104.472v227.793c0 17.063 13.702 30.714 30.828 30.714s30.828-13.65 30.828-30.714v-227.793h104.471v226.513c0 75.078-60.8 136.079-136.156 136.079z" />
<glyph unicode="&#xe945;" glyph-name="news" d="M349.043 472.998h137.958v150.835h-118.78c-11.062-46.43-17.613-97.544-19.178-150.835zM536.998 472.998h137.958c-1.566 53.291-8.115 104.405-19.179 150.835h-118.78v-150.835zM724.975 472.998h212.954c-3.034 52.757-15.625 103.706-36.958 150.835h-193.946c10.355-47.077 16.474-98.065 17.95-150.835zM316.975 623.833h-193.946c-21.329-47.128-33.923-98.077-36.957-150.835h212.954c1.475 52.77 7.593 103.758 17.95 150.835zM487.002 819.712c-31.057-12.192-61.261-46.527-85.538-98.303-6.975-14.877-13.297-30.797-18.959-47.575h104.497v145.878zM356.193 742.635c39.922 85.142 95.254 132.032 155.807 132.032-113.969 0-221.11-44.381-301.7-124.967-23.234-23.235-43.438-48.688-60.459-75.866h180.187c7.479 24.517 16.216 47.583 26.165 68.802zM667.806 742.635c9.95-21.217 18.684-44.285 26.163-68.802h180.186c-17.020 27.178-37.222 52.631-60.459 75.866-80.585 80.585-187.729 124.967-301.696 124.967 60.553 0 115.883-46.89 155.806-132.032zM536.998 819.712v-145.878h104.495c-5.662 16.778-11.981 32.698-18.957 47.575-24.277 51.775-54.481 86.11-85.538 98.303zM85.333 423.002v-376.67c0-13.807 11.193-24.998 25-24.998h803.335c13.807 0 24.998 11.191 24.998 24.998v376.67h-853.333zM314.288 129.020c-9.603-2.999-19.708 0.7-25.748 9.425l-63.264 91.61v-82.889c0-11.507-9.327-20.834-20.833-20.834-11.505 0-20.833 9.327-20.833 20.834v149.717c0 9.118 5.928 17.178 14.633 19.891 8.704 2.714 18.16-0.55 23.343-8.051l66.551-96.371-0.818 84.612c-0.112 11.503 9.126 20.919 20.632 21.030h0.205c11.414 0 20.719-9.195 20.829-20.629l1.402-144.947v-0.201c0.002-11.038-6.318-20.143-16.099-23.198zM438.942 242.995c11.503 0 20.834-9.327 20.834-20.83 0-11.507-9.331-20.834-20.834-20.834h-37.71v-33.335h42.369c11.507 0 20.834-9.327 20.834-20.834 0-11.503-9.327-20.83-20.834-20.83h-63.203c-11.507 0-20.834 9.327-20.834 20.83v150.003c0 11.503 9.327 20.83 20.834 20.83h63.203c11.507 0 20.834-9.327 20.834-20.83 0-11.507-9.327-20.834-20.834-20.834h-42.369v-33.335h37.71zM692.019 292.821l-29.342-147.426c-0.179-0.896-0.414-1.779-0.708-2.645-3.319-9.754-12.467-16.35-22.767-16.418h-0.162c-10.236 0-19.392 6.46-22.822 16.115-0.098 0.277-0.188 0.555-0.277 0.836l-25.609 83.132-25.728-83.115c-0.055-0.183-0.115-0.367-0.179-0.55-3.315-9.749-12.463-16.346-22.758-16.418h-0.171c-10.231 0-19.388 6.451-22.818 16.107-0.341 0.956-0.61 1.941-0.811 2.94l-29.222 147.746c-2.231 11.285 5.107 22.246 16.397 24.478 11.281 2.236 22.246-5.107 24.478-16.393l15.731-79.526 24.768 80.017c1.579 7.057 6.78 13.094 14.187 15.377 10.995 3.388 22.656-2.782 26.044-13.777l25.135-81.596 15.774 79.253c2.249 11.285 13.214 18.607 24.499 16.367 11.281-2.249 18.607-13.218 16.363-24.503zM842.402 176.009c-5.137-28.787-32.546-49.677-65.169-49.677-26.287 0-50.961 10.598-67.708 29.077-7.727 8.525-7.083 21.7 1.446 29.427 8.525 7.723 21.7 7.074 29.427-1.451 8.734-9.634 22.502-15.39 36.834-15.39 13.406 0 22.805 7.799 24.154 15.339 1.762 9.869-13.594 16.35-18.338 18.099-23.33 8.606-44.045 17.826-44.915 18.214-1.007 0.452-1.971 0.977-2.893 1.574-16.499 10.761-25.003 29.628-22.187 49.237 2.991 20.847 18.202 37.82 39.693 44.292 39.667 11.955 72.674-12.74 77.5-16.597 4.881-3.81 8.030-9.737 8.030-16.414 0-11.503-9.323-20.834-20.83-20.834-5.116 0-9.792 1.852-13.423 4.907l0.115-0.128c-0.183 0.149-19.149 15.266-39.377 9.173-8.478-2.556-10.146-8.068-10.466-10.321-0.218-1.502-0.329-5.056 2.718-7.676 5.547-2.423 22.391-9.673 40.452-16.337 39.057-14.4 48.819-42.769 44.937-64.516z" />
<glyph unicode="&#xe946;" glyph-name="p2p" d="M255.575 467.524c60.151 0 108.913 48.759 108.913 108.911s-48.762 108.913-108.913 108.913c-60.151 0-108.913-48.762-108.913-108.913s48.762-108.911 108.913-108.911zM415.685 270.263c12.271 19.721 13.457 43.938 3.191 64.772l-30.336 61.508c-11.329 22.963-34.269 37.227-59.864 37.227h-146.201c-25.602 0-48.541-14.268-59.878-37.231l-30.323-61.504c-10.272-20.826-9.085-45.043 3.184-64.772 12.262-19.729 33.459-31.501 56.687-31.501h206.854c23.228 0 44.417 11.772 56.687 31.501zM768.435 467.524c60.151 0 108.915 48.759 108.915 108.911s-48.764 108.913-108.915 108.913c-60.151 0-108.911-48.762-108.911-108.913s48.759-108.911 108.911-108.911zM931.738 335.036l-30.327 61.504c-11.145 22.613-34.641 37.231-59.866 37.231h-146.202c-25.596 0-48.542-14.268-59.878-37.231l-30.327-61.504c-10.266-20.834-9.071-45.052 3.183-64.772 12.271-19.729 33.459-31.501 56.695-31.501h206.861c23.219 0 44.407 11.772 56.678 31.497 12.267 19.721 13.449 43.942 3.183 64.777zM411.801 713.149c0.961 0.247 89.144 22.802 142.337 34.42v-34.502c0-3.898 2.155-7.479 5.602-9.305 3.43-1.835 7.59-1.613 10.842 0.57l115.908 78.268c2.897 1.962 4.642 5.236 4.642 8.735s-1.745 6.772-4.642 8.735l-115.908 78.267c-3.243 2.189-7.411 2.395-10.842 0.57-3.447-1.825-5.602-5.407-5.602-9.305v-32.937c-40.853-0.556-117.619-15.055-154.757-109.448-1.455-3.678-0.713-7.864 1.908-10.835 2.615-2.964 6.697-4.207 10.513-3.232zM642.411 182.857c-0.947-0.247-89.135-22.801-142.332-34.411v34.492c0 3.9-2.155 7.479-5.594 9.306-3.452 1.847-7.616 1.626-10.846-0.567l-115.906-78.268c-2.903-1.963-4.639-5.235-4.639-8.738 0-3.499 1.736-6.771 4.639-8.734l115.906-78.268c3.238-2.185 7.411-2.402 10.846-0.567 3.439 1.822 5.594 5.406 5.594 9.301v32.939c40.858 0.555 117.615 15.057 154.765 109.449 1.442 3.678 0.713 7.863-1.907 10.837-2.62 2.957-6.613 4.198-10.526 3.23z" />
<glyph unicode="&#xe947;" glyph-name="phone" d="M923.093 124.070c-5.67-5.645-12.501-12.868-19.746-20.51-18.082-19.187-40.67-43.042-54.827-52.715-74.483-50.897-174.131-26.543-244.617 2.825-92.979 38.741-194.214 110.153-285.11 201.058-90.981 90.914-162.385 192.179-201.126 285.108-29.334 70.501-53.739 170.168-2.833 244.669 9.667 14.167 33.575 36.719 52.739 54.833 7.667 7.223 14.833 14.049 20.5 19.697 10.060 10.010 23.675 15.63 37.868 15.63s27.808-5.62 37.868-15.63l137.048-137.008c10.005-10.060 15.621-23.671 15.621-37.859s-5.616-27.799-15.621-37.859l-37.334-37.259c-12.468-12.377-20.606-28.449-23.204-45.824s0.485-35.124 8.789-50.608c51.35-96.917 130.623-176.179 227.553-227.511 15.475-8.303 33.225-11.379 50.594-8.777 17.37 2.598 33.434 10.743 45.803 23.215l37.239 37.261c10.061 10.010 23.676 15.629 37.871 15.629 14.191 0 27.806-5.619 37.867-15.629l137.058-137.033c10.001-10.057 15.62-23.663 15.62-37.85s-5.619-27.797-15.62-37.854z" />
<glyph unicode="&#xe948;" glyph-name="piggy-bank" d="M353.619 444.979c124.576 0 225.62 96.176 225.62 214.754s-101.043 214.933-225.62 214.933c-124.576 0-225.619-96.178-225.619-214.755s101.043-214.932 225.619-214.932zM274.801 574.933c2.054 7.111 4.109 14.045 6.35 21.155 2.615 8.178 5.043 9.067 12.887 5.156 13.447-6.578 27.642-10.311 42.583-12.089 9.525-1.067 19.051-0.177 27.829 3.556 16.623 6.933 19.237 25.244 5.23 36.267-4.856 3.733-10.272 6.577-15.875 8.889-14.568 6.045-29.697 10.667-43.518 18.489-22.225 12.623-36.42 30.223-34.739 56 1.868 29.156 19.238 47.467 47.253 57.067 11.58 4.089 11.58 3.911 11.767 15.467 0 3.911 0 7.823 0 11.733 0.187 8.711 1.868 10.133 10.833 10.489 2.801 0 5.603 0 8.405 0 19.424 0 19.424 0 19.424-18.489 0-12.977 0-13.155 13.634-15.111 10.459-1.6 20.358-4.445 30.070-8.533 5.416-2.311 7.284-5.867 5.79-11.2-2.428-8-4.669-16-7.471-23.823-2.615-7.467-5.043-8.533-12.514-5.155-15.128 6.933-31.004 9.955-47.813 9.067-4.483-0.178-8.591-0.711-12.701-2.489-14.381-6.045-16.809-21.156-4.482-30.578 6.163-4.8 13.26-8.178 20.731-11.022 12.701-4.978 25.588-9.956 37.914-16.356 38.662-20.444 49.119-66.667 21.852-98.133-9.899-11.377-22.599-19.022-37.728-22.933-6.537-1.777-9.525-4.977-9.152-11.377s0-12.624 0-19.024c0-5.687-2.988-8.708-8.965-8.887-7.098-0.179-14.382-0.179-21.479 0-6.35 0.179-9.338 3.554-9.338 9.421 0 4.625 0 9.246-0.187 13.868-0.186 10.133-0.373 10.667-10.833 12.267-13.261 1.956-26.148 4.8-38.288 10.489-9.152 4.089-10.086 6.4-7.471 15.822zM859.767 427.021h-26.334c-17.37 50.667-51.362 95.646-96.751 130.49 0 1.6-0.371 3.377-0.747 4.977-9.523 31.823 2.244 60.8 15.876 81.6 9.527 14.578-2.799 33.245-20.732 31.111-40.154-4.8-67.797-18.845-86.848-34.667-13.073-10.845-22.413-25.422-26.522-41.6-28.762-113.421-136.154-197.867-264.092-197.867-62.195 0-119.346 19.913-165.105 53.333-15.875-32.713-24.467-68.446-24.467-105.954 0-20.267 2.615-40 7.471-59.025 0 0 0-0.354 0.187-0.887 5.043-19.733 12.7-38.754 22.412-56.713 12.887-26.487 31.564-57.421 57.338-82.487 37.167-36.446 43.517-81.6 44.451-101.154v-8.358c0-0.354 0-0.708 0-1.067 0-0.175 0-0.175 0-0.175 0.747-9.6 9.152-17.246 19.424-17.246h118.039c10.645 0 19.426 8.179 19.426 18.487v27.733c17.182-2.133 34.739-3.375 52.48-3.375 14.007 0 27.644 0.708 41.276 2.133v-26.492c0-10.133 8.593-18.487 19.426-18.487h118.413c10.645 0 19.422 8.179 19.422 18.487v27.733c0.188 9.246 3.55 46.046 40.158 77.513 1.306 1.067 2.615 2.133 3.921 3.2 0.375 0.354 0.747 0.533 1.122 0.887 40.713 34.492 70.784 77.513 86.285 125.513h24.841c19.797 0 35.861 15.287 35.861 34.133v84.087c-0.375 18.846-16.435 34.133-36.233 34.133zM712.030 420.979c-16.247 0-29.321 12.442-29.321 27.908s13.073 27.913 29.321 27.913c16.252 0 29.325-12.446 29.325-27.913s-13.073-27.908-29.325-27.908z" />
<glyph unicode="&#xe949;" glyph-name="play" d="M512 874.667c-235.279 0-426.667-191.407-426.667-426.667s191.388-426.667 426.667-426.667c235.277 0 426.667 191.407 426.667 426.667s-191.39 426.667-426.667 426.667zM681.617 433.050l-248.887-160c-2.914-1.89-6.285-2.829-9.618-2.829-2.917 0-5.868 0.73-8.507 2.172-5.73 3.123-9.271 9.097-9.271 15.607v320c0 6.51 3.542 12.483 9.271 15.608 5.625 3.090 12.672 2.9 18.125-0.66l248.887-159.998c5.073-3.264 8.162-8.909 8.162-14.95s-3.089-11.682-8.162-14.95z" />
<glyph unicode="&#xe94a;" glyph-name="plus" d="M554.667 789.333h-85.333v-298.667h-298.667v-85.333h298.667v-298.667h85.333v298.667h298.667v85.333h-298.667v298.667z" />
<glyph unicode="&#xe94b;" glyph-name="plus-fill" d="M832 832h-640c-16.974 0-33.253-6.743-45.255-18.745s-18.745-28.281-18.745-45.255v-640c0-16.973 6.743-33.254 18.745-45.257s28.281-18.743 45.255-18.743h640c16.973 0 33.254 6.741 45.257 18.743s18.743 28.284 18.743 45.257v640c0 16.974-6.741 33.253-18.743 45.255s-28.284 18.745-45.257 18.745zM736 416h-192v-192c0-8.486-3.371-16.627-9.374-22.626-5.999-6.003-14.14-9.374-22.626-9.374s-16.627 3.371-22.626 9.374c-6.003 5.999-9.374 14.14-9.374 22.626v192h-192c-8.487 0-16.626 3.371-22.627 9.374-6.001 5.999-9.373 14.14-9.373 22.626s3.372 16.627 9.373 22.626c6.001 6.003 14.141 9.374 22.627 9.374h192v192c0 8.487 3.371 16.626 9.374 22.627 5.999 6.001 14.14 9.373 22.626 9.373s16.627-3.372 22.626-9.373c6.003-6.001 9.374-14.141 9.374-22.627v-192h192c8.486 0 16.627-3.371 22.626-9.374 6.003-5.999 9.374-14.14 9.374-22.626s-3.371-16.627-9.374-22.626c-5.999-6.003-14.14-9.374-22.626-9.374z" />
<glyph unicode="&#xe94c;" glyph-name="private" d="M894.925 707.876c-1.498 16.294-12.16 30.336-27.477 36.085l-335.817 126.017c-3.827 1.916-7.915 3.205-12.16 3.914-9.242 1.873-18.94 0.29-27.439-4.123l-335.27-125.808c-15.322-5.749-25.983-19.791-27.476-36.085-0.457-4.96-40.135-495.81 358.799-679.541 0.418-0.29 0.875-0.585 1.331-0.832 6.746-4.126 14.4-6.17 22.067-6.17 1.165 0 2.33 0.043 3.499 0.124 6.908 0.457 13.781 2.581 19.9 6.293 400.265 183.275 360.503 675.124 360.043 680.126zM713.664 546.649l-182.635-190.971c-7.94-8.29-18.88-13.047-30.362-13.171-0.166 0-0.311 0-0.478 0-11.315 0-22.174 4.506-30.174 12.506l-85.358 85.359c-16.67 16.67-16.67 43.678 0 60.352s43.677 16.67 60.351 0l54.498-54.515 152.482 159.461c16.273 17.046 43.366 17.631 60.331 1.332 17.033-16.299 17.638-43.306 1.344-60.352z" />
<glyph unicode="&#xe94d;" glyph-name="promo" d="M686.319 839.324c22.519 15.069 50.432 11.512 64.405-0.641 6.054-5.276 11.968-14.26 5.734-27.138-13.099-27.172-40.994-44.719-71.031-44.719h-85.999c4.045-10.45 6.285-21.795 6.285-33.661 0-10.569-1.783-20.733-5.022-30.223h202.253c13.487 25.621 14.464 55.034 2.445 81.987l-24.644 55.321c-2.88 6.406-7.296 12.372-13.299 17.598-20.932 18.17-61.389 25.25-95.266 2.596l-92.877-62.182c5.897-6.102 10.991-12.979 15.070-20.48l91.947 61.541zM423.334 702.959c-3.237 9.49-5.023 19.654-5.023 30.223 0 11.866 2.242 23.21 6.287 33.661h-85.948c-30.037 0-57.934 17.564-71.098 44.736-6.237 12.861-0.32 21.845 5.748 27.104 7.518 6.54 19.064 10.586 31.639 10.586 10.804 0 22.351-2.983 32.751-9.945l91.93-61.541c4.079 7.518 9.19 14.395 15.070 20.48l-92.875 62.182c-33.88 22.654-74.335 15.575-95.219-2.596-6.692-5.815-11.445-12.541-14.243-19.789l-23.716-53.113c-12.035-26.953-11.057-56.366 2.444-81.987h202.254zM450.756 702.959h122.462c4.514 9.119 7.078 19.384 7.078 30.223 0 37.639-30.677 68.317-68.318 68.317s-68.318-30.678-68.318-68.317c0.017-10.855 2.581-21.103 7.095-30.223zM107.792 624.108v-83.521c0-25.097 17.395-46.204 40.741-51.917h316.368v188.905h-303.659c-29.464 0-53.45-23.986-53.45-53.467zM148.549 92.279c0-39.121 31.824-70.946 70.947-70.946h245.422v441.971h-316.368v-371.025zM862.75 677.574h-303.625v-188.887h316.318c23.36 5.713 40.738 26.82 40.738 51.917v83.521c0.017 29.464-23.966 53.45-53.431 53.45zM559.125 21.333h245.372c39.121 0 70.946 31.825 70.946 70.946v371.025h-316.318v-441.971z" />
</font>
</defs>
</svg>
